Loading...
Error

Скачать Неприятности с обезьянкой / Monkey trouble (Франко Амурри) [1994, комедия, семейный, DVDRip] 2x[MVO] + 3x[AVO] торрент без регистрации

 
Статистика раздачи
Размер:  2,21 GB   |    Скачан:  121 раз
Сидов:  1  [  0 KB/s  ]  
 
Автор Сообщение

leon030982

[] 

Неприятности с обезьянкой / Monkey trouble

Год выпуска: 1994
Страна: США, Япония
Жанр: комедия, семейный
Продолжительность: 01:36:08

Переводы: Профессиональный (многололосый закадровый) от ОРТ + неопознанный и Авторский (одноголосый, закадровый) - 3 варианта, Андрей Гаврилов, Василий Горчаков и Павел Санаев
Субтитры: нет
Оригинальная дорожка: английский

Режиссер: Франко Амурри / Franco Amurri

В ролях: Тора Берч / Thora Birch, Мими Роджерс / Mimi Rogers, Кристофер МакДоналд / Christopher McDonald, Харви Кайтел / Harvey Keitel, Виктор Арго / Victor Argo, Роберт Миранда / Robert Miranda, Кевин Скэннелл / Kevin Scannell

Описание: Мелкий мошенник Азро выдрессировал мартышку воровать деньги и ценности. От него уходит жена, и, напившись, Азро избивает мартышку. Мартышка убегает к девятилетней девочке Еве, квартиру которой она ограбила.
Девочка отучает мартышку от «криминального творчества». Азро, нанятый мафией для крупной аферы и уже получивший крупный аванс, был просто в шоке от такого исправления.

Исходник: DVD5
Качество: DVDRip
Формат: AVI

Видео: 688x384 (16/9), 23.976 fps, XviD MPEG-4 ~2160 kbps avg, 0.341 bit/pixel
Аудио 1: Russian, AC3, 2/0 (L,R) ch, 128 kbps, Delay 0 mSec Многоголосый ОРТ Спасибо RUN3 (TommyBrown)
Аудио 2: Russian, AC3, 2/0 (L,R) ch, 128 kbps, Delay 0 mSec Многоголосый неопознанный
Аудио 3: Russian, AC3, 2/0 (L,R) ch, 128 kbps, Delay 0 mSec Андрей Гаврилов
Аудио 4: Russian, AC3, 2/0 (L,R) ch, 128 kbps, Delay 0 mSec Василий Горчаков
Аудио 5: Russian, AC3, 2/0 (L,R) ch, 128 kbps, Delay 0 mSec Павел Санаев
Аудио 6: English, AC3, 3/2 (L,C,R,SL,SR)+LFE ch, 448 kbps, Delay 0 mSec
Дополнительно: Понизил битрейт всех русских аудиодорожек потому, что то качество, которое они имеют, можно передать и с битрейтом 128 kbps. Тем самым сэкономлено место под видео.
Раздача от:

Общее
Полное имя : Nepriyatnosti.s.obezyankoi.1994.P.A.DVDRip_[Youtracker]_by_avproh.avi
Формат : AVI
Формат/Информация : Audio Video Interleave
Профиль формата : OpenDML
Размер файла : 2,21 Гбайт
Продолжительность : 1 ч. 36 м.
Общий поток : 3289 Кбит/сек
Программа кодирования : VirtualDubMod 1.5.10.3 (build 2550/release)
Библиотека кодирования : VirtualDubMod build 2550/release

Видео
Идентификатор : 0
Формат : MPEG-4 Visual
Профиль формата : Advanced Simple@L5
Параметр BVOP формата : 1
Параметр QPel формата : Нет
Параметр GMC формата : Без точки перехода
Параметр матрицы формата : Выборочная
Идентификатор кодека : XVID
Идентификатор кодека/Подсказка : XviD
Продолжительность : 1 ч. 36 м.
Битрейт : 2160 Кбит/сек
Ширина : 688 пикселей
Высота : 384 пикселя
Соотношение сторон : 16:9
Частота кадров : 23,976 кадра/сек
Цветовое пространство : YUV
Субдискретизация насыщенности : 4:2:0
Битовая глубина : 8 бит
Тип развёртки : Прогрессивная
Метод сжатия : С потерями
Бит/(Пиксели*Кадры) : 0.341
Размер потока : 1,45 Гбайт (66%)
Библиотека кодирования : XviD 65

Аудио #1
Идентификатор : 1
Формат : AC-3
Формат/Информация : Audio Coding 3
Расширение режима : CM (complete main)
Параметр Endianness формата : Big
Идентификатор кодека : 2000
Продолжительность : 1 ч. 36 м.
Вид битрейта : Постоянный
Битрейт : 128 Кбит/сек
Каналы : 2 канала
Расположение каналов : Front: L R
Частота : 48,0 КГц
Битовая глубина : 16 бит
Метод сжатия : С потерями
Размер потока : 88,0 Мбайт (4%)
Выравнивание : Разделение по промежуткам
Продолжительность промежутка : 42 мс. (1,00 видеокадр)
Время предзагрузки промежутка : 500 мс.

Аудио #2
Идентификатор : 2
Формат : AC-3
Формат/Информация : Audio Coding 3
Расширение режима : CM (complete main)
Параметр Endianness формата : Big
Идентификатор кодека : 2000
Продолжительность : 1 ч. 36 м.
Вид битрейта : Постоянный
Битрейт : 128 Кбит/сек
Каналы : 2 канала
Расположение каналов : Front: L R
Частота : 48,0 КГц
Битовая глубина : 16 бит
Метод сжатия : С потерями
Размер потока : 88,0 Мбайт (4%)
Выравнивание : Разделение по промежуткам
Продолжительность промежутка : 42 мс. (1,00 видеокадр)
Время предзагрузки промежутка : 500 мс.

Аудио #3
Идентификатор : 3
Формат : AC-3
Формат/Информация : Audio Coding 3
Расширение режима : CM (complete main)
Параметр Endianness формата : Big
Идентификатор кодека : 2000
Продолжительность : 1 ч. 36 м.
Вид битрейта : Постоянный
Битрейт : 128 Кбит/сек
Каналы : 2 канала
Расположение каналов : Front: L R
Частота : 48,0 КГц
Битовая глубина : 16 бит
Метод сжатия : С потерями
Размер потока : 88,0 Мбайт (4%)
Выравнивание : Разделение по промежуткам
Продолжительность промежутка : 42 мс. (1,00 видеокадр)
Время предзагрузки промежутка : 500 мс.

Аудио #4
Идентификатор : 4
Формат : AC-3
Формат/Информация : Audio Coding 3
Расширение режима : CM (complete main)
Параметр Endianness формата : Big
Идентификатор кодека : 2000
Продолжительность : 1 ч. 36 м.
Вид битрейта : Постоянный
Битрейт : 128 Кбит/сек
Каналы : 2 канала
Расположение каналов : Front: L R
Частота : 48,0 КГц
Битовая глубина : 16 бит
Метод сжатия : С потерями
Размер потока : 87,9 Мбайт (4%)
Выравнивание : Разделение по промежуткам
Продолжительность промежутка : 42 мс. (1,00 видеокадр)
Время предзагрузки промежутка : 500 мс.

Аудио #5
Идентификатор : 5
Формат : AC-3
Формат/Информация : Audio Coding 3
Расширение режима : CM (complete main)
Параметр Endianness формата : Big
Идентификатор кодека : 2000
Продолжительность : 1 ч. 36 м.
Вид битрейта : Постоянный
Битрейт : 128 Кбит/сек
Каналы : 2 канала
Расположение каналов : Front: L R
Частота : 48,0 КГц
Битовая глубина : 16 бит
Метод сжатия : С потерями
Размер потока : 88,0 Мбайт (4%)
Выравнивание : Разделение по промежуткам
Продолжительность промежутка : 42 мс. (1,00 видеокадр)
Время предзагрузки промежутка : 500 мс.

Аудио #6
Идентификатор : 6
Формат : AC-3
Формат/Информация : Audio Coding 3
Расширение режима : CM (complete main)
Параметр Endianness формата : Big
Идентификатор кодека : 2000
Продолжительность : 1 ч. 36 м.
Вид битрейта : Постоянный
Битрейт : 448 Кбит/сек
Каналы : 6 каналов
Расположение каналов : Front: L C R, Side: L R, LFE
Частота : 48,0 КГц
Битовая глубина : 16 бит
Метод сжатия : С потерями
Размер потока : 308 Мбайт (14%)
Выравнивание : Разделение по промежуткам
Продолжительность промежутка : 42 мс. (1,00 видеокадр)
Время предзагрузки промежутка : 500 мс.



Скачать Неприятности.с.обезьянкой.Monkey.trouble.(Франко.Амурри).[1994.комедия.семейный.DVDRip].2x[MVO].+.3x[AVO].torrent без регистрации
Золото ЗОЛОТАЯ РАЗДАЧА! СКАЧАННОЕ НЕ ЗАСЧИТЫВАЕТСЯ! Золото
Дата: Зарегистрирован   [ Тип: внутренний ] Как тут cкачать?
MAGNET ссылка
MAGNET ссылка


Скачать .torrent

12 KB

Статус: проверено DHT
Скачан: торрент - 121 раз, раздача полностью - 0 раз
Размер: 2,21 GB
Оценка:  - (Голосов: 0)
Поблагодарили: 0
Поделиться ссылкой на эту раздачу с друзьями:
В контактеFacebookОдноклассникиTwitterLivejournalМой МирLiveinternet
 

 
Показать сообщения:    


Вы не можете начинать темы
Вы не можете отвечать на сообщения
Вы не можете редактировать свои сообщения
Вы не можете удалять свои сообщения
Вы не можете голосовать в опросах
Вы не можете прикреплять файлы к сообщениям
Вы можете скачивать файлы