Loading...
Error

Скачать Доктор мафии / The Mob Doctor (Сезон 01, серии 01-11 из ???) (Майкл Диннер) [2012 г., драма, WEB-DLRip] [400p] [DVO] (NewStudio) торрент без регистрации

 
Статистика раздачи
Размер:  8,61 GB   |    Скачан:  168 раз
Сидов:  1  [  0 KB/s  ]  
 
Автор Сообщение

leon030982

[] 



Доктор мафии / The Mob Doctor


Год выпуска: 2012
Страна: США | FOX
Жанр: драма
Продолжительность: ~ 44 минуты
Перевод: Профессиональный (двухголосый, закадровый) - NewStudio
Субтитры: Нет
Режиссёр: Майкл Диннер
В ролях: Джордана Спиро, Желько Иванек, Роберта Чунг, Сэмюэл Медоуз, Адам Харингтон, Стив Микула и другие...
Описание: Для большинства врачей клятва Гиппократа священна. Но для одного доктора из Чикаго, которая оказалась в долгу у мафии, спасение жизней не на первом месте. The Mob Doctor — динамичная медицинская драма про талантливую молодую женщину, которая работает кардиохирургом днем, а ночью становится доктором для мафии, отрабатывая свои долги. Доктор Грейс Девлин — ведущий ординатор в медицинском центре Рузвельта в Чикаго. Умная, уверенная в себе, она один из самых многообещающих молодых хирургов страны. Но семейные узы крепко связивают ее с мафиозным миром чикагского Саутсайда. Чтобы выплатить игорный долг брата, она заключает сделку с дьяволом и соглашается работать на мафию.
Качество: WEB-DLRip
Формат: AVI
Видео кодек: XviD
Аудио кодек: AC-3
Видео: MPEG4, XviD, 720x400 (16/9), 23.976 fps, 1 964 Kbps (0.284 bit/pixel)
Аудио Rus: AC-3, 48.0 KHz, 2 ch, 192 Kbps, CBR|NewStudio|
Аудио Eng: AC-3, 48.0 KHz, 6 ch, 384 Kbps, CBR |Original|

Озвучка: Константин Погодаев, Анна Тух (БЯКО Рекордс)
Перевод: Альберт Фасхутдинов
Подготовка видео: Koss
Работа со звуком: Baggio
Постер: Vortex
/ Сэмпл / ImDB / Кинопоиск
General
Complete name : I:\ЗАКАЧКИ\Доктор мафии (Сезон 1) 400p NewStudio\The.Mob.Doctor.s01e01.avi
Format : AVI
Format/Info : Audio Video Interleave
File size : 802 MiB
Duration : 43mn 55s
Overall bit rate : 2 554 Kbps
Writing application : VirtualDubMod 1.5.10.3 | www.virtualdub-fr.org || (build 2550/release)
Writing library : VirtualDubMod build 2550/release
Video
ID : 0
Format : MPEG-4 Visual
Format profile : Advanced Simple@L5
Format settings, BVOP : 1
Format settings, QPel : No
Format settings, GMC : No warppoints
Format settings, Matrix : Default (MPEG)
Codec ID : XVID
Codec ID/Hint : XviD
Duration : 43mn 55s
Bit rate : 1 964 Kbps
Width : 720 pixels
Height : 400 pixels
Display aspect ratio : 16:9
Frame rate : 23.976 fps
Color space : YUV
Chroma subsampling : 4:2:0
Bit depth : 8 bits
Scan type : Progressive
Compression mode : Lossy
Bits/(Pixel*Frame) : 0.284
Stream size : 617 MiB (77%)
Writing library : XviD 1.2.1 (UTC 2008-12-04)
Audio #1
ID : 1
Format : AC-3
Format/Info : Audio Coding 3
Mode extension : CM (complete main)
Codec ID : 2000
Duration : 43mn 55s
Bit rate mode : Constant
Bit rate : 192 Kbps
Channel(s) : 2 channels
Channel positions : Front: L R
Sampling rate : 48.0 KHz
Bit depth : 16 bits
Compression mode : Lossy
Stream size : 60.3 MiB (8%)
Alignment : Split accross interleaves
Interleave, duration : 42 ms (1.00 video frame)
Interleave, preload duration : 500 ms
Audio #2
ID : 2
Format : AC-3
Format/Info : Audio Coding 3
Mode extension : CM (complete main)
Codec ID : 2000
Duration : 43mn 55s
Bit rate mode : Constant
Bit rate : 384 Kbps
Channel(s) : 6 channels
Channel positions : Front: L C R, Side: L R, LFE
Sampling rate : 48.0 KHz
Bit depth : 16 bits
Compression mode : Lossy
Stream size : 121 MiB (15%)
Alignment : Split accross interleaves
Interleave, duration : 42 ms (1.00 video frame)
Interleave, preload duration : 500 ms
[b]Внимание! Раздача ведётся путём добавления новых серий; при каждом добавлении создётся новый торрент. Чтобы начать докачку новой серии, пользователям необходимо сделать следующее:Остановить скачивание.
Удалить старый торрент у себя из клиента (старые серии удалять не надо).
Скачать новый торрент и запустить его у себя в клиенте вместо старого, при этом указать клиенту путь в старую папку куда и должно происходить скачивание новых серий.Ваш клиент при этом должен произвести хеширование (проверку) старой папки (если не производит сам - помогите ему сделать это), и будет докачивать только те серии которых у вас ещё нет. Старые серии при этом не удаляются, а продолжают раздаваться!
Eсли вы уже удалили старые серии, то предотвратить повторную закачку старых серий можно, отжав галочку в соответсвующих местах при запуске нового торрента. По возможности, желательно не удалять старые серии как можно дольше чтобы релизёр не столько продолжал раздавать старые серии, а смог сконцентрироваться на новых.
[align=center] [/font]



Скачать Доктор.мафии.The.Mob.Doctor.(Сезон.01.серии.01-11.из.???).(Майкл.Диннер).[2012.г.драма.WEB-DLRip].[400p].[DVO].(NewStudio).torrent без регистрации
Золото ЗОЛОТАЯ РАЗДАЧА! СКАЧАННОЕ НЕ ЗАСЧИТЫВАЕТСЯ! Золото
Дата: Зарегистрирован   [ Тип: внутренний ] Как тут cкачать?
MAGNET ссылка
MAGNET ссылка


Скачать .torrent

44 KB

Статус: проверено DHT
Скачан: торрент - 168 раз, раздача полностью - 0 раз
Размер: 8,61 GB
Оценка:  4,5 (Голосов: 2)
Поблагодарили: 1
Поделиться ссылкой на эту раздачу с друзьями:
В контактеFacebookОдноклассникиTwitterLivejournalМой МирLiveinternet
 

 
Показать сообщения:    


Вы не можете начинать темы
Вы не можете отвечать на сообщения
Вы не можете редактировать свои сообщения
Вы не можете удалять свои сообщения
Вы не можете голосовать в опросах
Вы не можете прикреплять файлы к сообщениям
Вы можете скачивать файлы