Loading...
Error

Скачать Я - легенда / I Am Legend (Френсис Лоуренс / Francis Lawrence) [2007, фантастика, триллер, драма, BDRip-AVC] [Альтернативная версия / Alternative Cut] [Dub] торрент без регистрации

 
Статистика раздачи
Размер:  1,45 GB   |    Скачан:  225 раз
Сидов:  1  [  0 KB/s  ]  
 
Автор Сообщение

leon030982

[] 

Я - легенда / I Am Legend

«Последний человек на Земле не одинок.»

Год выпуска: 2007
Страна: США
Жанр: фантастика, триллер, драма
Продолжительность: 01:43:54
Перевод: Профессиональный (дублированный) + многоголосый (вставки из киномании)
Cубтитры: нет

Режиссер: Френсис Лоуренс / Francis Lawrence

В ролях: Уилл Смит, Алиси Брага, Чарли Тахэн, Салли Ричардсон, Уиллоу Смит, Даррел Фостер, Эйприл Грэйс, Дэш Майок, Джоанна Нумата, Эбби и др.

Описание: Адаптация одноименного романа Ричарда Мэтисона о неизвестном вирусе, унесшем жизни половины населения земного шара, а остальную половину превратившего в вампиров. Сюжет строится вокруг единственного уцелевшего человека с необъяснимым иммунитетом, ночами держащего бесконечную осаду упырей, а днем пытающегося найти противоядие и выяснить причины эпидемии.


Качество видео: BDRip-AVC (Исходник: BDRemux)
Формат видео: MKV
Видео: 1 024x424 (2.40:1), 23.976 fps, ~1 617 kbps avg, 0.155 bit/pixel
Аудио: AC3, 48.0 KHz, 6 channels (Front: L C R, Side: L R, LFE), 384.00 kbps avg
avs [info]: 1024x424p 1:1 @ 2997/125 fps (cfr)
x264 [info]: using SAR=1/1
x264 [info]: using cpu capabilities: MMX2 SSE2Fast SSSE3 FastShuffle SSE4.2 AVX
x264 [info]: profile High, level 4.1
x264 [info]: frame I:924 Avg QP:15.70 size: 66804
x264 [info]: frame P:36356 Avg QP:19.74 size: 18063
x264 [info]: frame B:112193 Avg QP:22.91 size: 4826
x264 [info]: consecutive B-frames: 3.7% 4.0% 10.4% 20.9% 22.3% 29.8% 5.1% 2.0% 1.1% 0.4% 0.2% 0.1%
x264 [info]: mb I I16..4: 13.5% 62.1% 24.4%
x264 [info]: mb P I16..4: 2.6% 10.2% 1.6% P16..4: 37.3% 18.1% 12.7% 1.1% 0.4% skip:15.9%
x264 [info]: mb B I16..4: 0.1% 0.8% 0.1% B16..8: 38.4% 9.3% 2.2% direct: 4.3% skip:44.7% L0:43.1% L1:46.0% BI:10.9%
x264 [info]: 8x8 transform intra:70.4% inter:65.2%
x264 [info]: direct mvs spatial:95.4% temporal:4.6%
x264 [info]: coded y,uvDC,uvAC intra: 77.4% 78.9% 56.0% inter: 18.5% 16.1% 4.1%
x264 [info]: i16 v,h,dc,p: 48% 13% 8% 31%
x264 [info]: i8 v,h,dc,ddl,ddr,vr,hd,vl,hu: 14% 11% 7% 8% 13% 12% 13% 10% 13%
x264 [info]: i4 v,h,dc,ddl,ddr,vr,hd,vl,hu: 15% 11% 5% 8% 13% 12% 13% 10% 13%
x264 [info]: i8c dc,h,v,p: 40% 26% 18% 16%
x264 [info]: Weighted P-Frames: Y:5.0% UV:2.8%
x264 [info]: ref P L0: 44.4% 9.1% 16.7% 6.5% 5.3% 3.9% 3.5% 2.0% 1.8% 1.5% 1.4% 1.2% 1.2% 1.2% 0.3% 0.0%
x264 [info]: ref B L0: 75.4% 10.5% 4.6% 2.4% 1.7% 1.4% 1.1% 0.7% 0.6% 0.6% 0.5% 0.3% 0.2%
x264 [info]: ref B L1: 92.8% 7.2%
x264 [info]: kb/s:1616.72
General
Unique ID : 250107946502295367034215897329346719321 (0xBC2909D14AD48EA691E293B28152AE59)
Complete name : F:\I Am Legend.(Alternative.Cut).2007.BDRip-AVC.by Matroska.mkv
Format : Matroska
Format version : Version 2
File size : 1.45 GiB
Duration : 1h 43mn
Overall bit rate : 2 002 Kbps
Movie name : I Am Legend.(Alternative.Cut).2007.BDRip-AVC.by dOrOgOi
Encoded date : UTC 2012-04-23 09:16:41
Writing application : mkvmerge v5.4.0 ('Piper') built on Mar 10 2012 13:34:39
Writing library : libebml v1.2.3 + libmatroska v1.3.0
Video
ID : 1
Format : AVC
Format/Info : Advanced Video Codec
Format profile : High@L4.1
Format settings, CABAC : Yes
Format settings, ReFrames : 14 frames
Codec ID : V_MPEG4/ISO/AVC
Duration : 1h 43mn
Bit rate : 1 617 Kbps
Width : 1 024 pixels
Height : 424 pixels
Display aspect ratio : 2.40:1
Frame rate : 23.976 fps
Color space : YUV
Chroma subsampling : 4:2:0
Bit depth : 8 bits
Scan type : Progressive
Bits/(Pixel*Frame) : 0.155
Stream size : 1.15 GiB (79%)
Title : I Am Legend.(Alternative.Cut).2007.BDRip-AVC.by dOrOgOi
Writing library : x264 core 119 r2106 07efeb4
Encoding settings : cabac=1 / ref=14 / deblock=1:-2:-1 / analyse=0x3:0x133 / me=umh / subme=10 / psy=1 / psy_rd=1.00:0.10 / mixed_ref=1 / me_range=32 / chroma_me=1 / trellis=2 / 8x8dct=1 / cqm=0 / deadzone=21,11 / fast_pskip=0 / chroma_qp_offset=-3 / threads=8 / sliced_threads=0 / nr=0 / decimate=1 / interlaced=0 / bluray_compat=0 / constrained_intra=0 / bframes=11 / b_pyramid=2 / b_adapt=2 / b_bias=0 / direct=3 / weightb=1 / open_gop=0 / weightp=2 / keyint=250 / keyint_min=23 / scenecut=40 / intra_refresh=0 / rc_lookahead=50 / rc=2pass / mbtree=1 / bitrate=1617 / ratetol=1.0 / qcomp=0.60 / qpmin=0 / qpmax=69 / qpstep=4 / cplxblur=20.0 / qblur=0.5 / ip_ratio=1.40 / aq=1:1.00 / zones=137020,149473,q=40
Default : Yes
Forced : No
Matrix coefficients : BT.709-5, BT.1361, IEC 61966-2-4 709, SMPTE RP177
Audio
ID : 2
Format : AC-3
Format/Info : Audio Coding 3
Mode extension : CM (complete main)
Codec ID : A_AC3
Duration : 1h 43mn
Bit rate mode : Constant
Bit rate : 384 Kbps
Channel(s) : 6 channels
Channel positions : Front: L C R, Side: L R, LFE
Sampling rate : 48.0 KHz
Bit depth : 16 bits
Compression mode : Lossy
Stream size : 285 MiB (19%)
Title : Дубляж + (вставки из киномании)
Language : Russian
Default : Yes
Forced : No



Скачать Я.-.легенда.I.Am.Legend.(Френсис.Лоуренс.Francis.Lawrence).[2007.фантастика.триллер.драма.BDRip-AVC].[Альтернативная.версия.Alternative.Cut].[Dub].torrent без регистрации
Золото ЗОЛОТАЯ РАЗДАЧА! СКАЧАННОЕ НЕ ЗАСЧИТЫВАЕТСЯ! Золото
Дата: Зарегистрирован   [ Тип: внутренний ] Как тут cкачать?
MAGNET ссылка
MAGNET ссылка


Скачать .torrent

15 KB

Статус: проверено DHT
Скачан: торрент - 225 раз, раздача полностью - 169 раз
Размер: 1,45 GB
Оценка:  5 (Голосов: 2)
Поблагодарили: 3
Поделиться ссылкой на эту раздачу с друзьями:
В контактеFacebookОдноклассникиTwitterLivejournalМой МирLiveinternet
 

 
Показать сообщения:    


Вы не можете начинать темы
Вы не можете отвечать на сообщения
Вы не можете редактировать свои сообщения
Вы не можете удалять свои сообщения
Вы не можете голосовать в опросах
Вы не можете прикреплять файлы к сообщениям
Вы можете скачивать файлы