Loading...
Error

Скачать Экспресс из нянь / The Nanny Express (Брэдфорд Мэй) [2008, драма, семейный, DVDRip] [VO] торрент без регистрации

 
Статистика раздачи
Размер:  738 MB   |    Скачан:  142 раза
Сидов:  1  [  598 KB/s  ]  
 
Автор Сообщение

deniska1975

[] 

Экспресс из нянь / The Nanny Express

Русское название: Экспресс из нянь
Оригинальное название: The Nanny Express
Страна: США
Жанр: Драма, Семейный
Год выпуска: 2008
Продолжительность: 01:29:08
Перевод: Любительский одноголосый закадровый (ID-Daemon)
Cубтитры: нет

Режиссер: Брэдфорд Мэй / Bradford May

В ролях: Ванесса Марсил, Бреннан Эллиотт, Стейси Кич, Натали Дрейфусс, Дин Стокуэлл, Дорри Бартон, Питер Добсон, Дэвид Бэрри Грэй, Урия Шелтон, Дженнифер Сибел

Описание: Мама Эмили и Бена умерла, её сбил пьяный водитель. И теперь они издеваются над нянями, которых нанимает папа, с тем, чтобы они уволились как только начнут работу. Но в итоге в их доме появляется няня по имени Кейт.

Фильм скорее для школьного возраста, чем семейный, так как сюжет довольно прост.



Качество видео: DVDRip
Формат видео: AVI
Видео: 624x352 (1.77:1), 23.976 fps, XviD MPEG-4 ~956 kbps avg, 0.18 bit/pixel
Аудио: 48 kHz, MPEG Layer 3, 2 ch, ~192.00 kbps avg
General
Complete name : D:\Nanny Express.2008.avi
Format : AVI
Format/Info : Audio Video Interleave
File size : 738 MiB
Duration : 1h 29mn
Overall bit rate : 1 158 Kbps
Writing application : VirtualDubMod 1.5.10.2 (build 2540/release)
Writing library : VirtualDubMod build 2540/release
Video
ID : 0
Format : MPEG-4 Visual
Format profile : Advanced Simple@L5
Format settings, BVOP : Yes
Format settings, QPel : No
Format settings, GMC : No warppoints
Format settings, Matrix : Default (H.263)
Muxing mode : Packed bitstream
Codec ID : XVID
Codec ID/Hint : XviD
Duration : 1h 29mn
Bit rate : 956 Kbps
Width : 624 pixels
Height : 352 pixels
Display aspect ratio : 16:9
Frame rate : 23.976 fps
Color space : YUV
Chroma subsampling : 4:2:0
Bit depth : 8 bits
Scan type : Progressive
Bits/(Pixel*Frame) : 0.182
Stream size : 610 MiB (83%)
Writing library : XviD 1.2.1 (UTC 2008-12-04)
Audio
ID : 1
Format : MPEG Audio
Format version : Version 1
Format profile : Layer 3
Mode : Joint stereo
Mode extension : Intensity Stereo
Codec ID : 55
Codec ID/Hint : MP3
Duration : 1h 29mn
Bit rate mode : Constant
Bit rate : 192 Kbps
Channel(s) : 2 channels
Sampling rate : 48.0 KHz
Stream size : 122 MiB (17%)
Alignment : Split accross interleaves
Interleave, duration : 42 ms (1.00 video frame)
Interleave, preload duration : 500 ms



Скачать Экспресс.из.нянь.The.Nanny.Express.(Брэдфорд.Мэй).[2008.драма.семейный.DVDRip].[VO].torrent без регистрации
Золото ЗОЛОТАЯ РАЗДАЧА! СКАЧАННОЕ НЕ ЗАСЧИТЫВАЕТСЯ! Золото
Дата: Зарегистрирован   [ Тип: внутренний ] Как тут cкачать?
MAGNET ссылка
MAGNET ссылка


Скачать .torrent

15 KB

Статус: проверено DHT
Скачан: торрент - 142 раз, раздача полностью - 46 раз
Размер: 738 MB
Оценка:  5 (Голосов: 1)
Поблагодарили: 3
Поделиться ссылкой на эту раздачу с друзьями:
В контактеFacebookОдноклассникиTwitterLivejournalМой МирLiveinternet
 

 
Показать сообщения:    


Вы не можете начинать темы
Вы не можете отвечать на сообщения
Вы не можете редактировать свои сообщения
Вы не можете удалять свои сообщения
Вы не можете голосовать в опросах
Вы не можете прикреплять файлы к сообщениям
Вы можете скачивать файлы