Loading...
Error

Скачать Против мёртвых / Vs. the Dead (Джефф Бекман / Jeff Beckman , Фил Паттисон / Phil Pattison) [2009, ужасы, DVDRip] [VO] (den904) торрент без регистрации

 
Статистика раздачи
Размер:  702 MB   |    Скачан:  184 раза
Сидов:  1  [  0 KB/s  ]  
 
Автор Сообщение

leon030982

[] 

Против мёртвых / Vs. the Dead

Год выпуска: 2009
Страна: США
Жанр: ужасы
Продолжительность: 01:29:59
Перевод: одноголосый закадровый den904
Перевод на русский: samael
Cубтитры
: нет
Режиссер: Джефф Бекман / Jeff Beckman , Фил Паттисон / Phil Pattison

В ролях: Бретт Хаули, Фил Фалдер
Описание: Секретное военное смертельное оружие, известное как "Круг 2" ошибочно попадает в тату-салон в маленьком Канадском городке. Хозяин салона использует его как чернила и вскоре клиенты заражаются и становятся Зомби. Один из зараженных, хозяин пиццерии, возвращается в свой ресторанчик как раз перед тем как стать живым мертвецом. Теперь только кучка друзей стоит между цивилизацией и тотальным мировым уничтожением.
РЕЛИЗ ГРУППЫ:

ВНИМАНИЕ!!! В ФИЛЬМЕ ПРИСУТСТВУЕТ НЕНОРМАТИВНАЯ ЛЕКСИКА

Качество видео: DVDRip (исходник неизвестен)
Формат видео: AVI
Видео: DivX, 720x400 (1.80:1), 29.970 fps, 951 kbps avg, 0.11 bit/pixel
Аудио: Русский, 48 kHz, MPEG layer 3, 128 kbps
Format : AVI
Format/Info : Audio Video Interleave
File size : 702 MiB
Duration : 1h 29mn
Overall bit rate : 1 091 Kbps
Writing application : VirtualDubMod 1.5.10.2 (build 2540/release)
Writing library : VirtualDubMod build 2540/release
Video
ID : 0
Format : MPEG-4 Visual
Format settings, BVOP : 1
Format settings, QPel : No
Format settings, GMC : No warppoints
Format settings, Matrix : Default (H.263)
Muxing mode : Packed bitstream
Codec ID : DX50
Codec ID/Hint : DivX 5
Duration : 1h 29mn
Bit rate : 952 Kbps
Width : 720 pixels
Height : 400 pixels
Display aspect ratio : 16:9
Frame rate : 29.970 fps
Color space : YUV
Chroma subsampling : 4:2:0
Bit depth : 8 bits
Scan type : Progressive
Compression mode : Lossy
Bits/(Pixel*Frame) : 0.110
Stream size : 613 MiB (87%)
Writing library : DivX 5.1.1 (Maupiti) (UTC 2003-11-19)
Audio
ID : 1
Format : MPEG Audio
Format version : Version 1
Format profile : Layer 3
Mode : Joint stereo
Mode extension : MS Stereo
Codec ID : 55
Codec ID/Hint : MP3
Duration : 1h 29mn
Bit rate mode : Constant
Bit rate : 128 Kbps
Channel(s) : 2 channels
Sampling rate : 48.0 KHz
Compression mode : Lossy
Stream size : 82.4 MiB (12%)
Alignment : Aligned on interleaves
Interleave, duration : 33 ms (1.00 video frame)
Interleave, preload duration : 504 ms



Скачать Против.мёртвых.Vs.the.Dead.(Джефф.Бекман.Jeff.Beckman.Фил.Паттисон.Phil.Pattison).[2009.ужасы.DVDRip].[VO].(den904).torrent без регистрации
Золото ЗОЛОТАЯ РАЗДАЧА! СКАЧАННОЕ НЕ ЗАСЧИТЫВАЕТСЯ! Золото
Дата: Зарегистрирован   [ Тип: внутренний ] Как тут cкачать?
MAGNET ссылка
MAGNET ссылка


Скачать .torrent

14 KB

Статус: проверено DHT
Скачан: торрент - 184 раз, раздача полностью - 253 раз
Размер: 702 MB
Оценка:  5 (Голосов: 2)
Поблагодарили: 5
Поделиться ссылкой на эту раздачу с друзьями:
В контактеFacebookОдноклассникиTwitterLivejournalМой МирLiveinternet
 

 
Показать сообщения:    


Вы не можете начинать темы
Вы не можете отвечать на сообщения
Вы не можете редактировать свои сообщения
Вы не можете удалять свои сообщения
Вы не можете голосовать в опросах
Вы не можете прикреплять файлы к сообщениям
Вы можете скачивать файлы