Loading...
Error

Скачать Рэгтайм / Ragtime (Милош Форман) [1981, драма, DVDRip-AVC] [Dub]+[MVO]+[Sub] торрент без регистрации

 
Статистика раздачи
Размер:  3,57 GB   |    Скачан:  129 раз

Полного источника не было: 25 минут

 
Автор Сообщение

Marsianka

[] 

Информация о фильме
Название: Регтайм
Оригинальное название: Ragtime
Год выпуска: 1981
Жанр: драма
Режиссер: Милош Форман
В ролях: Джеймс Кэгни, Брэд Дуриф, Моузес Ганн, Элизабет МакГоверн, Кеннет МакМиллан, Хауард И. Роллинз-младший, Мэри Стинберджен, Джеймс Олсон, Мэнди Пэтинкин, Доналд О'Коннор, Пэт О'Брайен, Дебби Эллен , Джефф Дэниэлс, Джон Ратценбергер, Норман Мэйлер

О фильме: Известный роман Э. Доктороу перенесен на экран знаменитым создателем «Пролетая над гнездом кукушки» Милошем Форманом. Это эпическое по размаху повествование, рисующее жизнь Америки в 1906 году. В фильме переплетается множество сюжетных линий. Жизнь нескольких американских семей показана как срез жизни общества. Постепенно на первый план выходит история чернокожего джазиста Конхауза Уокера, оскорбленного и мстящего за свое поруганное человеческое достоинство...



Выпущено: Paramount (США)
Продолжительность: 02:28:49
Перевод: Дублированный / Профессиональный многоголосый
Субтитры: Русские

Файл
Кодек: H264
Качество: DVDRip (AVC)
Видео: MPEG-4 AVC, 2407 Кбит/с, 1008x432
Звук: ДБ (MP3, 2 ch, 128 Кбит/с), ПМ (AC3, 6 ch, 448 Кбит/с), английский (AC3, 6 ch, 448 Кбит/с)

Семпл
General
Complete name : Regtaim.1981.DVDRip(AVC)-Valegorov.mkv
Format : Matroska
File size : 3.57 GiB
Duration : 2h 28mn
Overall bit rate : 3 435 Kbps
Movie name : Ragtime 1981 [ve]
Encoded date : UTC 2012-10-08 06:11:35
Writing application : mkvmerge v2.1.0 ('Another Place To Fall') built on Aug 19 2007 13:40:07
Writing library : libebml v0.7.7 + libmatroska v0.8.1

Video
ID : 1
Format : AVC
Format/Info : Advanced Video Codec
Format profile : High@L4.1
Format settings, CABAC : Yes
Format settings, ReFrames : 7 frames
Muxing mode : Container profile=Unknown@4.1
Codec ID : V_MPEG4/ISO/AVC
Duration : 2h 28mn
Bit rate : 2 407 Kbps
Width : 1 008 pixels
Height : 432 pixels
Display aspect ratio : 2.35:1
Frame rate : 25.000 fps
Color space : YUV
Chroma subsampling : 4:2:0
Bit depth : 8 bits
Scan type : Progressive
Bits/(Pixel*Frame) : 0.221
Stream size : 2.44 GiB (68%)
Title : Ragtime 1981 [ve]
Writing library : x264 core 92 r1510 33d382a
Encoding settings : cabac=1 / ref=7 / deblock=1:-1:-1 / analyse=0x3:0x133 / me=umh / subme=10 / psy=1 / psy_rd=1.00:0.10 / mixed_ref=1 / me_range=64 / chroma_me=1 / trellis=2 / 8x8dct=1 / cqm=0 / deadzone=21,11 / fast_pskip=0 / chroma_qp_offset=-3 / threads=3 / sliced_threads=0 / nr=0 / decimate=1 / interlaced=0 / constrained_intra=0 / bframes=3 / b_pyramid=2 / b_adapt=2 / b_bias=0 / direct=3 / wpredb=1 / wpredp=2 / keyint=250 / keyint_min=25 / scenecut=40 / intra_refresh=0 / rc_lookahead=50 / rc=2pass / mbtree=1 / bitrate=2407 / ratetol=1.0 / qcomp=0.60 / qpmin=10 / qpmax=51 / qpstep=4 / cplxblur=20.0 / qblur=0.5 / ip_ratio=1.40 / aq=1:1.00
Language : English

Audio #1
ID : 2
Format : MPEG Audio
Format version : Version 1
Format profile : Layer 3
Mode : Joint stereo
Codec ID : A_MPEG/L3
Codec ID/Hint : MP3
Duration : 2h 28mn
Bit rate mode : Constant
Bit rate : 128 Kbps
Channel(s) : 2 channels
Sampling rate : 48.0 KHz
Stream size : 136 MiB (4%)
Title : Dub
Language : Russian

Audio #2
ID : 3
Format : AC-3
Format/Info : Audio Coding 3
Mode extension : CM (complete main)
Codec ID : A_AC3
Duration : 2h 28mn
Bit rate mode : Constant
Bit rate : 448 Kbps
Channel(s) : 6 channels
Channel positions : Front: L C R, Side: L R, LFE
Sampling rate : 48.0 KHz
Bit depth : 16 bits
Stream size : 477 MiB (13%)
Title : MVO
Language : Russian

Audio #3
ID : 4
Format : AC-3
Format/Info : Audio Coding 3
Mode extension : CM (complete main)
Codec ID : A_AC3
Duration : 2h 28mn
Bit rate mode : Constant
Bit rate : 448 Kbps
Channel(s) : 6 channels
Channel positions : Front: L C R, Side: L R, LFE
Sampling rate : 48.0 KHz
Bit depth : 16 bits
Stream size : 477 MiB (13%)
Language : English

Text
ID : 5
Format : UTF-8
Codec ID : S_TEXT/UTF8
Codec ID/Info : UTF-8 Plain Text
Language : Russian
Релиз от: Valegorov



Скачать Рэгтайм.Ragtime.(Милош.Форман).[1981.драма.DVDRip-AVC].[Dub]+[MVO]+[Sub].torrent без регистрации
Золото ЗОЛОТАЯ РАЗДАЧА! СКАЧАННОЕ НЕ ЗАСЧИТЫВАЕТСЯ! Золото
Дата: Зарегистрирован   [ Тип: внутренний ] Как тут cкачать?
MAGNET ссылка
MAGNET ссылка


Скачать .torrent

18 KB

Статус: проверено DHT
Скачан: торрент - 129 раз, раздача полностью - 136 раз
Размер: 3,57 GB
Оценка:  - (Голосов: 0)
Поблагодарили: 3
Поделиться ссылкой на эту раздачу с друзьями:
В контактеFacebookОдноклассникиTwitterLivejournalМой МирLiveinternet
 

 

Inna622

[] 

Хороший фильм, давно искала. спасибо!!!!!!!!!!!!!!!!!!!!!!!!!!!!!!!!!!!!!!!!!!!!!!!!!!!!!!!!!!!!!!!!!!!!!!!!!!!!!!!!!!!!!!!!
 
Показать сообщения:    


Вы не можете начинать темы
Вы не можете отвечать на сообщения
Вы не можете редактировать свои сообщения
Вы не можете удалять свои сообщения
Вы не можете голосовать в опросах
Вы не можете прикреплять файлы к сообщениям
Вы можете скачивать файлы