Loading...
Error

Скачать Мертв по прибытии / D.O.A. (Аннабел Джэнкел / Annabel Jankel, Рокки Мортон / Rocky Morton) [1988, триллер, детектив, BDRip-AVC] [Dub] (СВ-Дубль) + [MVO] (Видеосервис) + [MVO] + [AVO] (А.Гаврилов) торрент без регистрации

 
Статистика раздачи
Размер:  2,89 GB   |    Скачан:  105 раз
Сидов:  1  [  0 KB/s  ]  
 
Автор Сообщение

leon030982

[] 

Мертв по прибытии / D.O.A.


Год выпуска: 1988
Страна: США
Жанр: триллер, детектив
Продолжительность: 01:37:32
Перевод: Профессиональный (дублированный) - СВ-Дубль
Перевод 2: Профессиональный (многоголосый закадровый) - Видеосервис
Перевод 3: Профессиональный (многоголосый закадровый)
Перевод 4: Авторский (одноголосый закадровый) - А.Гаврилов
Cубтитры: английские
Оригинальная аудиодорожка: английский

Режиссер: Аннабел Джэнкел / Annabel Jankel, Рокки Мортон / Rocky Morton

В ролях: Деннис Куэйд /Dennis Quaid/, Мег Райан /Meg Ryan/, Шарлотта Рэмплинг /Charlotte Rampling/, Дэниел Стерн /Daniel Stern/, Джейн Качмарек /Jane Kaczmarek/, Кристофер Ним /Christopher Neame/, Робин Джонсон /Robin Johnson/, Роберт Неппер /Robert Knepper/, Джей Пэттерсон /Jay Patterson/, Брайон Джеймс /Brion James

Описание: Иногда человек узнает, что мертв, за несколько часов до гибели. Как профессор колледжа Декстер Корнелл, который в один жуткий момент обнаруживает, что отравлен медленно действующим ядом и обречен на мучительную смерть через 24 часа.
Мотивов преступления нет. Есть лишь неукротимая жажда найти за эти сутки своего убийцу и призвать его к ответу. Маловато времени, но живому мертвецу терять нечего: он не будет церемониться на своем страшном пути к правде... и смерти. Отсчет пошел.



Сэмпл
Качество видео: BDRip-AVC [Исходник: BD-Remux от HDClub (Спасибо Diablo)]
Формат видео: MKV
Видео: AVC (H.264), 944x512 (1.85:1), 23.976 fps, 2998 kbps avg, 0.259 bit/pixel
Аудио: Russian: AC3, 48 kHz, 16 bits, 192 kbps, 2.0 ch (Дубляж, СВ-Дубль)
Аудио 2: Russian: AC3, 48 kHz, 16 bits, 224 kbps, 2.0 ch (MVO, Видеосервис)
Аудио 3: Russian: AC3, 48 kHz, 16 bits, 384 kbps, 6 ch (MVO)
Аудио 4: Russian: AC3, 48 kHz, 16 bits, 224 kbps, 2.0 ch (AVO, А.Гаврилов)
Аудио 4: English: AC3, 48 kHz, 16 bits, 224 kbps, 2.0 ch
Формат субтитров: softsub (SRT)
Навигация по главам: есть
Общее
Уникальный идентификатор : 183537907842114753897671081521061308940 (0x8A141D81F6959FB9BEB31B175A342A0C)
Полное имя : E:\Video\D.O.A.1988.by.kvvk_2009.mkv
Формат : Matroska
Версия формата : Version 2
Размер файла : 2,89 Гбайт
Продолжительность : 1 ч. 37 м.
Общий поток : 4248 Кбит/сек
Дата кодирования : UTC 2012-10-11 12:53:39
Программа кодирования : mkvmerge v2.9.8 ('C'est le bon') built on Aug 13 2009 12:49:06
Библиотека кодирования : libebml v0.7.7 + libmatroska v0.8.1
Видео
Идентификатор : 1
Формат : AVC
Формат/Информация : Advanced Video Codec
Профиль формата : High@L4.1
Параметр CABAC формата : Да
Параметр ReFrames формата : 8 кадров
Идентификатор кодека : V_MPEG4/ISO/AVC
Продолжительность : 1 ч. 37 м.
Битрейт : 2998 Кбит/сек
Ширина : 944 пикселя
Высота : 512 пикселей
Соотношение сторон : 16:9
Частота кадров : 23,976 кадра/сек
Цветовое пространство : YUV
Субдискретизация насыщенности : 4:2:0
Битовая глубина : 8 бит
Тип развёртки : Прогрессивная
Бит/(Пиксели*Кадры) : 0.259
Размер потока : 1,99 Гбайт (69%)
Библиотека кодирования : x264 core 125 r2200 999b753
Настройки программы : cabac=1 / ref=8 / deblock=1:-2:-2 / analyse=0x3:0x113 / me=umh / subme=10 / psy=1 / psy_rd=1.00:0.10 / mixed_ref=1 / e_range=32 / chroma_me=1 / trellis=2 / 8x8dct=1 / cqm=0 / deadzone=21,11 / fast_pskip=0 / chroma_qp_offset=-3 / threads=3 / lookahead_threads=1 / liced_threads=0 / nr=0 / decimate=0 / interlaced=0 / bluray_compat=0 / constrained_intra=0 / bframes=14 / b_pyramid=2 / b_adapt=2 / b_bias=0 / direct=3 weightb=1 / open_gop=0 / weightp=2 / keyint=230 / keyint_min=23 / scenecut=40 / intra_refresh=0 / rc=2pass / mbtree=0 / bitrate=2998 / ratetol=1.0 / comp=0.60 / qpmin=0 / qpmax=51 / qpstep=4 / cplxblur=20.0 / qblur=0.5 / ip_ratio=1.40 / pb_ratio=1.30 / aq=1:0.90
Язык : English
Default : Нет
Forced : Нет
Аудио #1
Идентификатор : 2
Формат : AC-3
Формат/Информация : Audio Coding 3
Расширение режима : CM (complete main)
Идентификатор кодека : A_AC3
Продолжительность : 1 ч. 37 м.
Вид битрейта : Постоянный
Битрейт : 192 Кбит/сек
Каналы : 2 канала
Расположение каналов : Front: L R
Частота : 48,0 КГц
Битовая глубина : 16 бит
Метод сжатия : С потерями
Размер потока : 134 Мбайт (5%)
Заголовок : AC3 2ch @ 192 kbps |Dub, СВ-Дубль|
Язык : Russian
Default : Да
Forced : Нет
Аудио #2
Идентификатор : 3
Формат : AC-3
Формат/Информация : Audio Coding 3
Расширение режима : CM (complete main)
Идентификатор кодека : A_AC3
Продолжительность : 1 ч. 37 м.
Вид битрейта : Постоянный
Битрейт : 224 Кбит/сек
Каналы : 2 канала
Расположение каналов : Front: L R
Частота : 48,0 КГц
Битовая глубина : 16 бит
Метод сжатия : С потерями
Размер потока : 156 Мбайт (5%)
Заголовок : AC3 2ch @ 224 kbps |MVO, Видеосервис|
Язык : Russian
Default : Нет
Forced : Нет
Аудио #3
Идентификатор : 4
Формат : AC-3
Формат/Информация : Audio Coding 3
Расширение режима : CM (complete main)
Идентификатор кодека : A_AC3
Продолжительность : 1 ч. 37 м.
Вид битрейта : Постоянный
Битрейт : 384 Кбит/сек
Каналы : 6 каналов
Расположение каналов : Front: L C R, Side: L R, LFE
Частота : 48,0 КГц
Битовая глубина : 16 бит
Метод сжатия : С потерями
Размер потока : 268 Мбайт (9%)
Заголовок : AC3 6ch @ 384 kbps |MVO|
Язык : Russian
Default : Нет
Forced : Нет
Аудио #4
Идентификатор : 5
Формат : AC-3
Формат/Информация : Audio Coding 3
Расширение режима : CM (complete main)
Идентификатор кодека : A_AC3
Продолжительность : 1 ч. 37 м.
Вид битрейта : Постоянный
Битрейт : 224 Кбит/сек
Каналы : 2 канала
Расположение каналов : Front: L R
Частота : 48,0 КГц
Битовая глубина : 16 бит
Метод сжатия : С потерями
Размер потока : 156 Мбайт (5%)
Заголовок : AC3 2ch @ 224 kbps |AVO, А.Гаврилов|
Язык : Russian
Default : Нет
Forced : Нет
Аудио #5
Идентификатор : 6
Формат : AC-3
Формат/Информация : Audio Coding 3
Расширение режима : CM (complete main)
Идентификатор кодека : A_AC3
Продолжительность : 1 ч. 37 м.
Вид битрейта : Постоянный
Битрейт : 224 Кбит/сек
Каналы : 2 канала
Расположение каналов : Front: L R
Частота : 48,0 КГц
Битовая глубина : 16 бит
Метод сжатия : С потерями
Размер потока : 156 Мбайт (5%)
Заголовок : AC3 2ch @ 224 kbps
Язык : English
Default : Нет
Forced : Нет
Текст
Идентификатор : 7
Формат : UTF-8
Идентификатор кодека : S_TEXT/UTF8
Идентификатор кодека/Информация : UTF-8 Plain Text
Язык : English
Default : Нет
Forced : Нет
Меню
00:00:00.000 : :00:00:00.000
00:04:14.128 : :00:04:14.128
00:11:19.095 : :00:11:19.095
00:20:53.001 : :00:20:53.001
00:34:22.393 : :00:34:22.393
00:44:24.119 : :00:44:24.119
00:50:35.115 : :00:50:35.115
00:56:56.037 : :00:56:56.037
01:02:53.519 : :01:02:53.519
01:12:57.289 : :01:12:57.289
01:21:50.196 : :01:21:50.196
01:33:32.565 : :01:33:32.565



Скачать Мертв.по.прибытии.D.O.A.(Аннабел.Джэнкел.Annabel.Jankel.Рокки.Мортон.Rocky.Morton).[1988.триллер.детектив.BDRip-AVC].[Dub].(СВ-Дубль).+.[MVO].(Видеосервис).+.[MVO].+.[AVO].(А.Гаврилов).torrent без регистрации
Золото ЗОЛОТАЯ РАЗДАЧА! СКАЧАННОЕ НЕ ЗАСЧИТЫВАЕТСЯ! Золото
Дата: Зарегистрирован   [ Тип: внутренний ] Как тут cкачать?
MAGNET ссылка
MAGNET ссылка


Скачать .torrent

15 KB

Статус: проверено DHT
Скачан: торрент - 105 раз, раздача полностью - 7 раз
Размер: 2,89 GB
Оценка:  4 (Голосов: 1)
Поблагодарили: 1
Поделиться ссылкой на эту раздачу с друзьями:
В контактеFacebookОдноклассникиTwitterLivejournalМой МирLiveinternet
 

 
Показать сообщения:    


Вы не можете начинать темы
Вы не можете отвечать на сообщения
Вы не можете редактировать свои сообщения
Вы не можете удалять свои сообщения
Вы не можете голосовать в опросах
Вы не можете прикреплять файлы к сообщениям
Вы можете скачивать файлы