Loading...
Error

Скачать Родина / Чужой среди своих / Homeland (Сезон 1-4 , Серии 1-48 из 48) [2011-2014, Триллер, драма, криминал, детектив , WEBDLRip-AVC] [720р] [MVO] [LostFilm] торрент без регистрации

 
Статистика раздачи
Размер:  64,23 GB   |    Скачан:  1104 раза
Сидов:  1  [  0 KB/s  ]  
 
Автор Сообщение

Nikolai.Baranov

[] 



Чужой среди своих / ]Родина / Homeland Сезон 1-4 Серии 1-48 из 48








Год выпуска: 2011-2014
Выпущено: США ,
Жанр: Триллер, драма, криминал, детектив
Авторы идеи: Говард Гордон, Алекс Ганза, Гидеон Рэфф
Продолжительность: 00:55:00
Сезон: 1-4
Серии: 1-48
Количество серий в сезоне: 48
Озвучка:Профессиональный многоголосый закадровый(LostFilm)
Субтитры: Нет

Сайт сериала:



Режиссер: Майкл Куэста, Кларк Джонсон, Джеффри Начманофф

В ролях: Клэр Дэйнс, Дамиан Льюис, Морена Баккарин, Дэвид Хэрвуд, Диего Клаттенхофф, Джексон Паке, Моргон Сэйлор, Мэнди Пэтинкин, Дэвид Марсиано, Навид Негабан и др.


Аналитик ЦРУ Кэрри Мэтисон во время операции в Ираке выясняет, что американский военнопленный завербован Аль-Каедой. Вскоре после этого отряд спецназа Дельта во время зачистки обнаруживает сержанта морской пехоты Николаса Броуди, который числился пропавшим без вести с 2003-го года. Понимая, что доказать виновность Броуди будет практически невозможно, Кэрри обращается за помощью к своему наставнику Солу Беренсону. Вместе они будут вести расследование, чтобы предотвратить очередной теракт на территории США.




Качество : WEB-DLRip-AVC 720p
Формат: MPEG-4
Видео кодек: H264
Видео: 3111-3046Кбит/сек,1280х720(16.9),в 25.000кадр/сек,AVC(Baseline@L3.1)(1Ref Frames)
Аудио кодек: AAC
Аудио Russian Dolby Digital 5.1:456-254Кбит/сек,44.1КГц,6каналов,AAC,(Version4)(LC)





Звуковая дорожка сделана путем наложения чистого голоса озвучивателей на центральный канал оригинальной дорожки. Качество идентично звуковой дорожке.




Список эпизодов 1сезона

01 Пилот (Pilot)
02 Благодать (Grace)
03 С чистого листа (Clean Skin)
04 Эгоист (Semper I)
05 Слепая зона (Blind Spot)
06 Хороший солдат (The Good Soldier)
07 Выходные (The Weekend)
08 Ахиллесова пята (Achilles Heel)
09 Перекрестный огонь (Crossfire)
10 Представительный Броуди (Representative Brody)
11 Жилет (The Vest)
12 Первый морпех (Marine One)


Список эпизодов 2сезона

01 Улыбка (The Smile)
02 Снова Бейрут (Beirut Is Back)
03 Штат независимости (State of Independence)
04 Запах новой машины (New Car Smell)
05 Вопросы и ответы (Q&A)
06 Адрес в Геттисбурге (A Gettysburg Address)
07 Поляна (The Clearing)
08 Улечу я далеко (I'll Fly Away)
09 Совместитель (Two Hats)
10 Разбитые сердца (Broken Hearts)
11 Светлая память (In Memoriam)
12 Выбор (The Choice)


Список эпизодов 3сезона

01 Железный дровосек мёртв (Tin Man Is Down)
02 Ух... ох... ах... (Uh... Oh... Ah...)
03 Башня Давида (Tower of David)
04 Игра началась (Game On)
05 Приём с йогой (The Yoga Play)
06 Ещё в деле (Still Positive)
07 Стариканус (Gerontion)
08 Красная тачка (A Red Wheelbarrow)
09 Последний раз (One Last Time)
10 Спокойной ночи (Good Night)
11 Большой человек в Тегеране (Big Man in Tehran)
12 Звезда (The Star)


Список эпизодов 4сезона

01. Королева дронов (The Drone Queen)
02. Трилон и Перисфера (Trylon and Perisphere)
03. Шальвар-камиз (Shalwar Kameez)
04. Запасной вариант (Iron in the Fire)
05 Мой мальчик (About a Boy)
06 Из пункта А в пункт Б и обратно (From A to B and Back Again)
07 Возвращение (Redux)
08 Наполовину пончик (Halfway to a Donut)
09 Затевается что-то ещё (There's Something Else Going On)
10 13 часов в Исламабаде (13 Hours in Islamabad)
11 Война зла (Krieg Nicht Lieb)
12 Давно пора (Long Time Coming)



General
Полное имя : G:\Новая папка\HOMELAND_2011_-_2014_S01_-_S04_RUS[LostFilm_TV]x264_Nikolai.Baranov_WEB-DLRip-AVC_(720p)\S01\Homeland_2011_S01E01_rus[LostFilm.TV]_x264_Nikolai.Baranov_WEB-DLRip-AVC_(720p).mp4
Формат : MPEG-4
Профиль формата : Base Media
Идентификатор кодека : isom
Размер файла : 1.50 GiB
Продолжительность : 54mn 51s
Режим общего битрейта : Variable
Общий поток : 3 913 Kbps
Дата кодирования : UTC 2014-11-07 15:22:21
Дата пометки : UTC 2014-11-07 15:22:21
Программа кодирования : Lavf51.12.1

Video
Идентификатор : 1
Формат : AVC
Формат/Информация : Advanced Video Codec
Профиль формата : Baseline@L3.1
Параметр CABAC формата : No
Параметр ReFrames формата : 1 frame
Параметр GOP формата : M=1, N=12
Идентификатор кодека : avc1
Идентификатор кодека/Информация : Advanced Video Coding
Продолжительность : 54mn 50s
Вид битрейта : Variable
Битрейт : 3 602 Kbps
Максимальный битрейт : 5 250 Kbps
Ширина : 1 280 pixels
Высота : 720 pixels
Соотношение сторон : 16:9
Режим частоты кадров : Constant
Частота кадров : 25.000 fps
Частота кадров в оригинале : 24.000 fps
Цветовое пространство : YUV
Субдискретизация насыщенности : 4:2:0
Битовая глубина : 8 bits
Тип развёртки : Progressive
Бит/(Пиксели*Кадры) : 0.156
Размер потока : 1.38 GiB (92%)
Дата кодирования : UTC 2014-11-07 15:22:21
Дата пометки : UTC 2014-11-07 15:22:21

Audio
Идентификатор : 2
Формат : AAC
Формат/Информация : Advanced Audio Codec
Профиль формата : LC
Идентификатор кодека : 40
Продолжительность : 54mn 51s
Вид битрейта : Variable
Битрейт : 306 Kbps
Каналы : 6 channels
Расположение каналов : Front: L C R, Side: L R, LFE
Частота : 48.0 KHz
Метод сжатия : Lossy
Размер потока : 120 MiB (8%)
Язык : Russian
Дата кодирования : UTC 2014-11-07 15:22:21
Дата пометки : UTC 2014-11-07 15:22:21



General
Полное имя : F:\Новая папка (3)\Homeland_2012_-_2013_S02_-_S03_rus[LostFilm.TV]_DD5.1_x264_Nikolai.Baranov_WEB-DLRip-AVC_(720p)\S02\Homeland_2012_S02E01_rus[LostFilm.TV]_DD5.1_x264_Nikolai.Baranov_WEB-DLRip-AVC_(720p).mp4
Формат : MPEG-4
Профиль формата : Base Media
Идентификатор кодека : isom
Размер файла : 1.38 GiB
Продолжительность : 55mn 20s
Режим общего битрейта : Variable
Общий поток : 3 571 Kbps
Дата кодирования : UTC 2012-10-11 16:54:08
Дата пометки : UTC 2012-10-11 16:54:08
Программа кодирования : Lavf51.12.1

Video
Идентификатор : 1
Формат : AVC
Формат/Информация : Advanced Video Codec
Профиль формата : Baseline@L3.1
Параметр CABAC формата : No
Параметр ReFrames формата : 1 frame
Параметр GOP формата : M=1, N=12
Идентификатор кодека : avc1
Идентификатор кодека/Информация : Advanced Video Coding
Продолжительность : 55mn 20s
Вид битрейта : Variable
Битрейт : 3 111 Kbps
Максимальный битрейт : 4 500 Kbps
Ширина : 1 280 pixels
Высота : 720 pixels
Соотношение сторон : 16:9
Режим частоты кадров : Constant
Частота кадров : 25.000 fps
Частота кадров в оригинале : 24.000 fps
Цветовое пространство : YUV
Субдискретизация насыщенности : 4:2:0
Битовая глубина : 8 bits
Тип развёртки : Progressive
Бит/(Пиксели*Кадры) : 0.135
Размер потока : 1.20 GiB (87%)
Дата кодирования : UTC 2012-10-11 16:54:08
Дата пометки : UTC 2012-10-11 16:54:08

Audio
Идентификатор : 2
Формат : AAC
Формат/Информация : Advanced Audio Codec
Профиль формата : LC
Идентификатор кодека : 40
Продолжительность : 55mn 20s
Вид битрейта : Variable
Битрейт : 456 Kbps
Каналы : 6 channels
Расположение каналов : Front: L C R, Side: L R, LFE
Частота : 44.1 KHz
Метод сжатия : Lossy
Размер потока : 180 MiB (13%)
Дата кодирования : UTC 2012-10-11 16:54:08
Дата пометки : UTC 2012-10-11 16:54:08



General
Полное имя : F:\Новая папка (3)\Homeland_2012_-_2013_S02_-_S03_rus[LostFilm.TV]_DD5.1_x264_Nikolai.Baranov_WEB-DLRip-AVC_(720p)\S03\Homeland_2013_S03E01_rus[LostFilm.TV]_DD5.1_x264_Nikolai.Baranov_WEB-DLRip-AVC_(720p).mp4
Формат : MPEG-4
Профиль формата : Base Media
Идентификатор кодека : isom
Размер файла : 1.34 GiB
Продолжительность : 58mn 14s
Режим общего битрейта : Variable
Общий поток : 3 304 Kbps
Дата кодирования : UTC 2013-10-02 09:15:41
Дата пометки : UTC 2013-10-02 09:15:41
Программа кодирования : Lavf51.12.1

Video
Идентификатор : 1
Формат : AVC
Формат/Информация : Advanced Video Codec
Профиль формата : Baseline@L3.1
Параметр CABAC формата : No
Параметр ReFrames формата : 1 frame
Параметр GOP формата : M=1, N=12
Идентификатор кодека : avc1
Идентификатор кодека/Информация : Advanced Video Coding
Продолжительность : 58mn 14s
Вид битрейта : Variable
Битрейт : 3 046 Kbps
Максимальный битрейт : 4 500 Kbps
Ширина : 1 280 pixels
Высота : 720 pixels
Соотношение сторон : 16:9
Режим частоты кадров : Constant
Частота кадров : 25.000 fps
Частота кадров в оригинале : 24.000 fps
Цветовое пространство : YUV
Субдискретизация насыщенности : 4:2:0
Битовая глубина : 8 bits
Тип развёртки : Progressive
Бит/(Пиксели*Кадры) : 0.132
Размер потока : 1.24 GiB (92%)
Дата кодирования : UTC 2013-10-02 09:15:41
Дата пометки : UTC 2013-10-02 09:15:41

Audio
Идентификатор : 2
Формат : AAC
Формат/Информация : Advanced Audio Codec
Профиль формата : LC
Идентификатор кодека : 40
Продолжительность : 58mn 14s
Вид битрейта : Variable
Битрейт : 254 Kbps
Каналы : 6 channels
Расположение каналов : Front: L C R, Side: L R, LFE
Частота : 44.1 KHz
Метод сжатия : Lossy
Размер потока : 106 MiB (8%)
Дата кодирования : UTC 2013-10-02 09:15:41
Дата пометки : UTC 2013-10-02 09:15:41



General
Полное имя : F:\Новая папка\HOMELAND_2012_-_2014_S02_-_S04_RUS[LostFilm_TV]x264_Nikolai.Baranov_WEB-DLRip-AVC_(720p)\S04\Homeland_2014_S04E01_rus[LostFilm.TV]_x264_Nikolai.Baranov_WEB-DLRip-AVC_(720p).mp4
Формат : MPEG-4
Профиль формата : Base Media
Идентификатор кодека : isom
Размер файла : 1.32 GiB
Продолжительность : 49mn 1s
Режим общего битрейта : Variable
Общий поток : 3 855 Kbps
Дата кодирования : UTC 2014-10-07 18:12:13
Дата пометки : UTC 2014-10-07 18:12:13
Программа кодирования : Lavf51.12.1

Video
Идентификатор : 1
Формат : AVC
Формат/Информация : Advanced Video Codec
Профиль формата : Baseline@L3.1
Параметр CABAC формата : No
Параметр ReFrames формата : 1 frame
Параметр GOP формата : M=1, N=12
Идентификатор кодека : avc1
Идентификатор кодека/Информация : Advanced Video Coding
Продолжительность : 49mn 1s
Вид битрейта : Variable
Битрейт : 3 548 Kbps
Максимальный битрейт : 5 250 Kbps
Ширина : 1 280 pixels
Высота : 720 pixels
Соотношение сторон : 16:9
Режим частоты кадров : Constant
Частота кадров : 25.000 fps
Частота кадров в оригинале : 24.000 fps
Цветовое пространство : YUV
Субдискретизация насыщенности : 4:2:0
Битовая глубина : 8 bits
Тип развёртки : Progressive
Бит/(Пиксели*Кадры) : 0.154
Размер потока : 1.21 GiB (92%)
Дата кодирования : UTC 2014-10-07 18:12:13
Дата пометки : UTC 2014-10-07 18:12:13

Audio
Идентификатор : 2
Формат : AAC
Формат/Информация : Advanced Audio Codec
Профиль формата : LC
Идентификатор кодека : 40
Продолжительность : 49mn 1s
Вид битрейта : Variable
Битрейт : 302 Kbps
Каналы : 2 channels
Channel(s)_Original : 6 channels
Расположение каналов : Front: L C R, Side: L R, LFE
Частота : 48.0 KHz
Метод сжатия : Lossy
Размер потока : 106 MiB (8%)
Дата кодирования : UTC 2014-10-07 18:12:13
Дата пометки : UTC 2014-10-07 18:12:13










1сезон

2сезон


3сезон

4сезон


1. Открыть торрент
2. Снять галки с тех файлов торрента, которые мы не хотим закачивать. Оставляем только на нужных нам файлах (файле).
3. Нажать О.К.

В клиенте utorrent

Инструкция

1) Открыть торрент


2) Снять галки с тех файлов торрента, которые мы не хотим закачивать:

* либо вручную, снимая с каждого файла галку( скрин №1)
* либо, нажав кнопку "Снять метки (Select None)", сняв сразу со всех файлов(скрин №2)
№1

№2

Оставляем только на нужных нам файлах (файле).

3)Нажать О.К






Внимание!!! 04.01. 2015. РАЗДАЧА ОБНОВЛЕНА. ФИНАЛ СЕЗОНА. ОБНОВИТЕ ТОРЕНТ ФАЙЛ.ПРИЯТНОГО ПРОСМОТРА .

Релиз от: Nikolai.Baranov










Скачать Родина.Чужой.среди.своих.Homeland.(Сезон.1-4.Серии.1-48.из.48).[2011-2014.Триллер.драма.криминал.детектив.WEBDLRip-AVC].[720р].[MVO].[LostFilm].torrent без регистрации
Золото ЗОЛОТАЯ РАЗДАЧА! СКАЧАННОЕ НЕ ЗАСЧИТЫВАЕТСЯ! Золото
Дата: Зарегистрирован   [ Тип: внутренний ] Как тут cкачать?
MAGNET ссылка
MAGNET ссылка


Скачать .torrent

169 KB

Статус: проверено DHT
Скачан: торрент - 1104 раз, раздача полностью - 262 раз
Размер: 64,23 GB
Оценка:  5 (Голосов: 2)
Поблагодарили: 15
Поделиться ссылкой на эту раздачу с друзьями:
В контактеFacebookОдноклассникиTwitterLivejournalМой МирLiveinternet
 

 

kaybox

[] 

так а где 8-я серия? в раздаче только 7 серий, хотя написано что 1-8
 

VIVARIUM

[] 

На раздачу встаньте
 
Показать сообщения:    


Вы не можете начинать темы
Вы не можете отвечать на сообщения
Вы не можете редактировать свои сообщения
Вы не можете удалять свои сообщения
Вы не можете голосовать в опросах
Вы не можете прикреплять файлы к сообщениям
Вы можете скачивать файлы