Loading...
Error

Скачать Синьор Робинзон / Il signor Robinson, mostruosa storia d'amore e d'avventure (Серджио Корбуччи) [1976, комедия, приключения, DVDRip-AVC][MVO]+[Dub] торрент без регистрации

 
Статистика раздачи
Размер:  2,19 GB   |    Скачан:  168 раз
Сидов:  1  [  0 KB/s  ]  
 
Автор Сообщение

Marsianka

[] 

Синьор Робинзон / Il signor Robinson,
mostruosa storia d'amore e d'avventure


Информация о фильме:

Название: Синьор Робинзон
Оригинальное название: Il signor Robinson, mostruosa storia d'amore e d'avventure / Mr. Robinson
Год выхода: 1976
Жанр: Комедия, Приключения

Режиссер: Серджио Корбуччи /Sergio Corbucci/
Сценаристы: Франко Кастеллано /Franco Castellano/, Серджио Корбуччи /Sergio Corbucci/, Джузеппе Моччиа /Giuseppe Moccia/, Паоло Вилладжо /Paolo Villaggio/
Оператор: Марчелло Гатти /Marcello Gatti/
Композиторы: Гуидо Де Анджелис /Guido De Angelis/, Маурицио Де Анджелис /Maurizio De Angelis/

В ролях: Паоло Вилладжо /Paolo Villaggio/, Зеуди Арая /Zeudi Araya/, Анна Ногара /Anna Nogara/, Перси Хоган /Percy Hogan/ и другие...

Описание: Робинзон Крузо проходит через множество комичных ситуаций, пока ему не удается хоть как-то освоиться на острове. У него появляется даже Пятница только на этот раз это темнокожая красавица, с которой Робинзон поначалу тщетно пытается найти общий язык.

Современный Робинзон не хочет отказываться от благ цивилизации и придумывает, как заменить телевизор, радио и все то, без чего в наше время трудно представить свою жизнь

* Полное название - «Синьор Робинзон, потрясающая история любви и приключений&raquo.
* Фильм занимает 16-е место по посещаемости среди зарубежных лент в советском кинопрокате.
Страна:
Выпущено: Vides Cinematografica
Продолжительность: 01:43:17
Перевод 1: Профессиональный, многоголосый /закадровый/
Перевод 2: Советский дубляж /вставки из многоголоски/

Format : Matroska
File size : 2.19 GiB
Duration : 1h 43mn
Overall bit rate : 3 029 Kbps
Encoded date : UTC 2010-08-04 20:04:27
Writing application : mkvmerge v3.1.0 ('Happy up here') built on Jan 19 2010 12:09:24
Writing library : libebml v0.7.9 + libmatroska v0.8.1

Video
ID : 1
Format : AVC
Format/Info : Advanced Video Codec
Format profile : Baseline@L3.0
Format settings, CABAC : No
Format settings, ReFrames : 1 frame
Muxing mode : Container profile=Unknown@3.0
Codec ID : V_MPEG4/ISO/AVC
Duration : 1h 43mn
Bit rate : 2 450 Kbps
Width : 704 pixels
Height : 384 pixels
Display aspect ratio : 16:9
Frame rate : 25.000 fps
Color space : YUV
Chroma subsampling : 4:2:0
Bit depth : 8 bits
Scan type : Progressive
Bits/(Pixel*Frame) : 0.363
Stream size : 1.73 GiB (79%)
Writing library : x264 core 98 r1649 c54c47d
Encoding settings : cabac=0 / ref=1 / deblock=0:0:0 / analyse=0:0 / me=dia / subme=0 / psy=1 / psy_rd=0.00:0.00 / mixed_ref=0 / me_range=16 / chroma_me=1 / trellis=0 / 8x8dct=0 / cqm=0 / deadzone=21,11 / fast_pskip=1 / chroma_qp_offset=0 / threads=1 / sliced_threads=0 / nr=0 / decimate=1 / interlaced=0 / constrained_intra=0 / bframes=0 / weightp=0 / keyint=250 / keyint_min=25 / scenecut=0 / intra_refresh=0 / rc=2pass / mbtree=0 / bitrate=2450 / ratetol=1.0 / qcomp=0.60 / qpmin=10 / qpmax=51 / qpstep=4 / cplxblur=20.0 / qblur=0.5 / ip_ratio=1.40 / aq=0
Language : English

Audio #1
ID : 2
Format : AC-3
Format/Info : Audio Coding 3
Mode extension : CM (complete main)
Codec ID : A_AC3
Duration : 1h 43mn
Bit rate mode : Constant
Bit rate : 192 Kbps
Channel(s) : 2 channels
Channel positions : Front: L R
Sampling rate : 48.0 KHz
Bit depth : 16 bits
Stream size : 142 MiB (6%)
Title : Многоголосый
Language : Russian

Audio #2
ID : 3
Format : AC-3
Format/Info : Audio Coding 3
Mode extension : CM (complete main)
Codec ID : A_AC3
Duration : 1h 43mn
Bit rate mode : Constant
Bit rate : 192 Kbps
Channel(s) : 2 channels
Channel positions : Front: L R
Sampling rate : 48.0 KHz
Bit depth : 16 bits
Stream size : 142 MiB (6%)
Title : Советский
Language : Russian

Audio #3
ID : 4
Format : AC-3
Format/Info : Audio Coding 3
Mode extension : CM (complete main)
Codec ID : A_AC3
Duration : 1h 43mn
Bit rate mode : Constant
Bit rate : 192 Kbps
Channel(s) : 2 channels
Channel positions : Front: L R
Sampling rate : 48.0 KHz
Bit depth : 16 bits
Stream size : 142 MiB (6%)
Title : Оригинальный
Language : Italian
Качество: DVDRip-AVC /Исходник DVD5/
Формат: MKV
Видео кодек: x264
Аудио кодек: AC3
Видео: MPEG4 Video (H264) 704x384, 25.00fps, ~2450 kbps avg, 0.36 bit/pixel
Аудио 1: 44.100 kHz, Dolby AC3, 2 channels, ~192.00 kbps avg /Многоголосый/
Аудио 2: 44.100 kHz, Dolby AC3, 2 channels, ~192.00 kbps avg /Советский/
Аудио 3: 44.100 kHz, Dolby AC3, 2 channels, ~192.00 kbps avg /Оригинальный/
Субтитры: Нет
Навигация по главам: Нет



Скачать Синьор.Робинзон.Il.signor.Robinson.mostruosa.storia.d'amore.e.d'avventure.(Серджио.Корбуччи).[1976.комедия.приключения.DVDRip-AVC][MVO]+[Dub].torrent без регистрации
Золото ЗОЛОТАЯ РАЗДАЧА! СКАЧАННОЕ НЕ ЗАСЧИТЫВАЕТСЯ! Золото
Дата: Зарегистрирован   [ Тип: внутренний ] Как тут cкачать?
MAGNET ссылка
MAGNET ссылка


Скачать .torrent

11 KB

Статус: проверено DHT
Скачан: торрент - 168 раз, раздача полностью - 81 раз
Размер: 2,19 GB
Оценка:  4,5 (Голосов: 2)
Поблагодарили: 5
Поделиться ссылкой на эту раздачу с друзьями:
В контактеFacebookОдноклассникиTwitterLivejournalМой МирLiveinternet
 

 
Показать сообщения:    


Вы не можете начинать темы
Вы не можете отвечать на сообщения
Вы не можете редактировать свои сообщения
Вы не можете удалять свои сообщения
Вы не можете голосовать в опросах
Вы не можете прикреплять файлы к сообщениям
Вы можете скачивать файлы