Loading...
Error

Скачать Слезы апреля / Käsky (Аку Лоухимиес) [2008, Драма, военный, DVDRip] [DVO] (ViruseProject) торрент без регистрации

 
Статистика раздачи
Размер:  702 MB   |    Скачан:  103 раза
Сидов:  1  [  0 KB/s  ]  
 
Автор Сообщение

leon030982

[] 

Слезы апреля / Käsky


Год выпуска: 2008
Страна: Финляндия, Германия, Греция
Жанр: Драма, военный
Продолжительность: 01:49:03
Перевод: Любительский (двухголосый закадровый) ViruseProject (Агент Смит и Lalusha)
Cубтитры: нет

Режиссер: Аку Лоухимиес / Aku Louhimies

В ролях: Самули Ваурамо, Пихла Виитала, Эеро Ахо, Эмели Лоухимиес, Миина Маасола, Рийна Майдре, Сулеви Пелтола, Оскар Пёвсти и др.

Описание: 1918 год. Финляндия. Гражданская война. Красные разбиты. Их ловят и уничтожают.
Он и она - представители враждущих лагерей. История о любви, силе духа и моральном пробуждении, о лояльности, правде, и личной жертве. О моральном разрушающем воздействии войны, которому подвержены все - и простолюдин, и высокообразованный культурный человек.


Сэмпл: http://multi-up.com/775478
Качество видео: DVDRip
Формат видео: AVI
Видео: 688x288 (2.39:1), 25 fps, XviD build 50 ~761 kbps avg, 0.15 bit/pixel
Аудио: 48 kHz, MPEG Layer 3, 2 ch, ~128.00 kbps avg
Общее
Полное имя : E:\Slezi.Aprelya.2008.DVDRip.700.avi
Формат : AVI
Формат/Информация : Audio Video Interleave
Размер файла : 702 Мбайт
Продолжительность : 1 ч. 49 м.
Общий поток : 899 Кбит/сек
Программа кодирования : VirtualDubMod 1.5.10.3 | www.virtualdub-fr.org || (build 2550/release)
Библиотека кодирования : VirtualDubMod build 2550/release
Видео
Идентификатор : 0
Формат : MPEG-4 Visual
Профиль формата : Advanced Simple@L5
Параметр BVOP формата : 1
Параметр QPel формата : Нет
Параметр GMC формата : Без точки перехода
Параметр матрицы формата : Default (MPEG)
Идентификатор кодека : XVID
Идентификатор кодека/Подсказка : XviD
Продолжительность : 1 ч. 49 м.
Битрейт : 762 Кбит/сек
Ширина : 688 пикселей
Высота : 288 пикселей
Соотношение сторон : 2,40:1
Частота кадров : 25,000 кадров/сек
Цветовое пространство : YUV
Субдискретизация насыщенности : 4:2:0
Битовая глубина : 8 бит
Тип развёртки : Прогрессивная
Метод сжатия : С потерями
Бит/(Пиксели*Кадры) : 0.154
Размер потока : 594 Мбайт (85%)
Библиотека кодирования : XviD 1.2.1 (UTC 2008-12-04)
Аудио
Идентификатор : 1
Формат : MPEG Audio
Версия формата : Version 1
Профиль формата : Layer 3
Идентификатор кодека : 55
Идентификатор кодека/Подсказка : MP3
Продолжительность : 1 ч. 49 м.
Вид битрейта : Постоянный
Битрейт : 128 Кбит/сек
Каналы : 2 канала
Частота : 48,0 КГц
Метод сжатия : С потерями
Размер потока : 99,8 Мбайт (14%)
Выравнивание : Соединение по промежуткам
Продолжительность промежутка : 40 мс. (1,00 видеокадр)
Время предзагрузки промежутка : 504 мс.
Библиотека кодирования : LAME3.98r
Настройки программы : -m s -V 4 -q 2 -lowpass 17 -b 128



Скачать Слезы.апреля.Käsky.(Аку.Лоухимиес).[2008.Драма.военный.DVDRip].[DVO].(ViruseProject).torrent без регистрации
Золото ЗОЛОТАЯ РАЗДАЧА! СКАЧАННОЕ НЕ ЗАСЧИТЫВАЕТСЯ! Золото
Дата: Зарегистрирован   [ Тип: внутренний ] Как тут cкачать?
MAGNET ссылка
MAGNET ссылка


Скачать .torrent

14 KB

Статус: проверено DHT
Скачан: торрент - 103 раз, раздача полностью - 9 раз
Размер: 702 MB
Оценка:  - (Голосов: 0)
Поблагодарили: 0
Поделиться ссылкой на эту раздачу с друзьями:
В контактеFacebookОдноклассникиTwitterLivejournalМой МирLiveinternet
 

 
Показать сообщения:    


Вы не можете начинать темы
Вы не можете отвечать на сообщения
Вы не можете редактировать свои сообщения
Вы не можете удалять свои сообщения
Вы не можете голосовать в опросах
Вы не можете прикреплять файлы к сообщениям
Вы можете скачивать файлы