Loading...
Error

Скачать Титаник / Titanic (Джеймс Кэмерон) [1997, Драма, Мелодрама, Любовный, DVDRip] [Расширенная версия с альтернативной концовкой / Extended Cut with alternative final scene] [DUB] + [MVO] + [AVO] торрент без регистрации

 
Статистика раздачи
Размер:  4,33 GB   |    Скачан:  244 раза
Сидов:  1  [  0 KB/s  ]   Личеров:  1  [  0 KB/s  ]  
 
Автор Сообщение

leon030982

[] 

Титаник (расширенная версия с альтернативной концовкой)


Год выхода: 1997
Страна: США
Жанр: Драма, Мелодрама, Любовный
Продолжительность: 03:39:06
Перевод: Перевод (1): Профессиональный (дублированный)
Перевод (2): Профессиональный (многоголосый закадровый) НТВ+
Перевод (3): Авторский (одноголосый закадровый) [Андрей Гаврилов]
Оригинальная аудиодорожка: английский

Режиссер: Джеймс Кэмерон / James Cameron

В ролях: Билл Пэкстон /Bill Paxton/, Кейт Уинслет /Kate Winslet/, Леонардо ДиКаприо /Leonardo DiCaprio/, Сьюзи Эймис /Suzy Amis/, Дэвид Уорнер /David Warner/, Билли Зэйн /Billy Zane/, Фрэнсис Фишер /Frances Fisher/, Кэти Бэйтс /Kathy Bates

О фильме:
Эпическая мелодрама от создателей "Чужих" и "Правдивой лжи". Ещё одна впечатляющая сага о самой легендарной катастрофе XX века.
Покидая гавань в свой первый и последний рейс, корабль-дворец, сделанный по последнему слову техники и считавшийся непотопляемым, взял на борт аристократов и слуг, богатых промышленников и нищих иммигрантов. В истории "Титаника", ставшего роскошным монументом "позолоченного века", причудливо переплелись судьбы самых разных людей и среди них молодых влюбленных - Розы ДеВитт Букатер и Джека Доусона. Их мечты и надежды разбились об айсберг в ночь с 14 на 15 апреля 1912 года...
Великолепное, захватывающее, ни с чем не сравнимое зрелище, отмеченное 11 премиями `Оскар`, в том числе за лучшую картину. Знаменитый американский режиссер Джеймс Кэмерон дарит Вам рассказ о прекрасной любви и отваге, который, как истинный шедевр, с триумфом шествовал и шествует по экранам всего мира.
Самый кассовый фильм мира на протяжении 12 лет до выхода в 2009 году ещё одного знакового фильма Джеймса Кэмерона - "Аватар", легендарная сага всех времён о любви и верности.




Файл
Кодек: Xvid
Качество: DVDRip
Видео: 720x304 25.00fps 1 518 Kbps
Звук:
Аудио 1: Audio: Dolby AC3 48000Hz 6ch 320kbps [01) Rus Dub]
Аудио 2: Audio: Dolby AC3 48000Hz 6ch 320kbps [02) Rus MVO HTB+]
Аудио 3: Audio: Dolby AC3 48000Hz 6ch 320kbps [03) Rus AVO Gavrilov]
Аудио 4: Audio: Dolby AC3 48000Hz 6ch 320kbps [04) Original (English)]
Субтитры: русские, внешние форсированные (на удаленные сцены), отключаемые

Сценарий: Джеймс Кэмерон
Продюсеры: Джеймс Кэмерон, Джон Ландау
Исполнительный продюсер: Рэй Санчини
Оператор: Расселл Карпентер
Художник: Питер Ламонт
Композитор: Джеймс Хорнер
Монтаж: Конрад Бафф-четвертый (в титрах Конрад Бафф), Джеймс Кэмерон, Ричард Э. Харрис
Монтаж релиза: JigSaw & CarDinal (в титрах Paul8019 & Antislamer)
Костюмы: Дебора Линн Скотт (в титрах Дебора Л. Скотт)

Кинопоиск: 8.415 (84 262) Топ250: 43
IMDb: 7.40 (277 992)

Затраты: $240 000 000
Кассовые сборы: $1 843 201 268

Знаменитый рисунок с Кейт Уинслет был продан на интернет-аукционе в марте 2011 года. Новый владелец предпочел остаться анонимом.
Все киноманы мира прекрасно помнят одну из самых романтичных сцен из фильма «Титаник», в которой главный герой Джек (Леонардо Ди Каприо) рисует обнаженную Розу (Кейт Уинслет). Именно этот рисунок нашел нового покупателя, который отдал за него 11 000 евро.
Набросок с обнаженной Кейт Уинслет тогда, в 1997-м году, был сделан самим режиссером кинофильма «Титаник» Джеймсом Камероном. При этом, он подписан инициалами персонажа Ди Каприо - J. D. (Jack Dowson - Джек Доусон) и датирован 14 апреля 1912 годом канун драмы, которая произошла с реальным британским пароходом «Титаник».
Картинка была куплена с аукциона на интернет-сайте Premiere Props, который специализируется на продаже оригинальных вещей, оставшихся после съемок известных кинокартин, как, например, костюмы актеров или просто предметы, фигурирующие в кадрах.

1998 - ОСКАР
Победитель в категориях:
1 - Лучший фильм
2 - Лучший режиссер
3 - Лучшая работа художника
4 - Лучшая операторская работа
5 - Лучший дизайн костюмов
6 - Лучшие визуальные эффекты
7 - Лучший звук
8 - Лучший монтаж
9 - Лучшая песня
10 - Лучшая музыка (драма)
11 - Лучший монтаж звуковых эффектов
Номинирован в категориях:
1 - Лучшая актриса
2 - Лучшая актриса второго плана
3 - Лучший грим

1998 - ЗОЛОТОЙ ГЛОБУС
Победитель в категориях:
1 - Лучший фильм (драма)
2 - Лучшая режиссерская работа
3 - Лучшая музыка
Номинирован в категориях:
1 - Лучший актер (драма)
2 - Лучшая актриса (драма)
3 - Лучший сценарий
4 - Лучшая актриса второго плана

1998 - Премия канала «MTV»
Победитель в категориях:
1 - Лучший фильм
2 - Лучшая мужская роль (Леонардо ДиКаприо)
Номинирован в категориях:
1 - Лучшая песня «My Heart Will Go On»
2 - Лучший экранный дуэт (Леонардо ДиКаприо, Кейт Уинслет)
3 - Лучшая экшн-сцена
4 - Лучший поцелуй (Леонардо ДиКаприо, Кейт Уинслет)
5 - Лучшая женская роль (Кейт Уинслет)
6 - Лучший злодей (Билли Зейн)

1998 - Европейская киноакадемия
Победитель в категориях:
1 - Приз зрительских симпатий за лучшую женскую роль (Кейт Уинслет)
Номинирован в категориях:
1 - Приз за выдающиеся достижения в мировом кино (Кейт Уинслет)

1999 - Сезар
Номинирован в категориях:
1 - Лучший фильм на иностранном языке

1998 - Британская академия
Номинирован в категориях:
1 - Лучший фильм
2 - Лучшая работа оператора
3 - Лучшие костюмы
4 - Лучший звук
5 - Лучший монтаж
6 - Лучшие визуальные эффекты
7 - Лучший грим/прически
8 - Лучшая работа художника-постановщика
9 - Премия имени Дэвида Лина за достижения в режиссуре (Джеймс Кэмерон)
10 - Премия имени Энтони Эскуита за достижения в создании музыки к фильму

1) Титаник[Расширенная_версия]-Titanic[ExtendedCut](1997).avi - фильм
2) Титаник[Расширенная_версия]-Titanic[ExtendedCut](1997).txt - описание
3) Титаник[Расширенная_версия]-Titanic[ExtendedCut](1997).Rus.Forced.srt - субтитры
4) Титаник[Расширенная_версия]-Titanic[ExtendedCut](1997)_post.jpg - постер
5) Титаник[Расширенная_версия]-Titanic[ExtendedCut](1997)-MediaInfo.txt - медиаинфо о файле
6) Titanic_Kate_Winslet.jpg - изображение рисунка с Кейт Уинслет
7) Titanic_Theme_Song-Selin_Dion.flv - музыкальный ролик Селин Дион 'Titanic' Theme Song

General
Complete name : Титаник[Расширенная_версия]-Titanic[ExtendedCut](1997).avi
Format : AVI
Format/Info : Audio Video Interleave
Format profile : OpenDML
File size : 4.32 GiB
Duration : 3h 39mn
Overall bit rate : 2 822 Kbps
Movie name : Титаник / Titanic (1997)
Director : CarDinal (video&audio editing)
Writing application : VirtualDubModRus 1.5.10.2 (build 2542/release)
Writing library : VirtualDubMod build 2542/release
Copyright : Mir-TV
Comment : 29.06.2011

Video
ID : 0
Format : MPEG-4 Visual
Format profile : Advanced Simple@L5
Format settings, BVOP : Yes
Format settings, QPel : No
Format settings, GMC : No warppoints
Format settings, Matrix : Default (MPEG)
Codec ID : XVID
Codec ID/Hint : XviD
Duration : 3h 39mn
Bit rate : 1 518 Kbps
Width : 720 pixels
Height : 304 pixels
Display aspect ratio : 2.35:1
Frame rate : 25.000 fps
Color space : YUV
Chroma subsampling : 4:2:0
Bit depth : 8 bits
Scan type : Progressive
Bits/(Pixel*Frame) : 0.277
Stream size : 2.32 GiB (54%)
Title : DVDRip
Writing library : XviD 1.3.0.dev55

Audio #1
ID : 1
Format : AC-3
Format/Info : Audio Coding 3
Mode extension : CM (complete main)
Codec ID : 2000
Duration : 3h 39mn
Bit rate mode : Constant
Bit rate : 320 Kbps
Channel(s) : 6 channels
Channel positions : Front: L C R, Side: L R, LFE
Sampling rate : 48.0 KHz
Bit depth : 16 bits
Stream size : 501 MiB (11%)
Alignment : Split accross interleaves
Interleave, duration : 40 ms (1.00 video frame)
Interleave, preload duration : 500 ms
Title : Rus Dub

Audio #2
ID : 2
Format : AC-3
Format/Info : Audio Coding 3
Mode extension : CM (complete main)
Codec ID : 2000
Duration : 3h 39mn
Bit rate mode : Constant
Bit rate : 320 Kbps
Channel(s) : 6 channels
Channel positions : Front: L C R, Side: L R, LFE
Sampling rate : 48.0 KHz
Bit depth : 16 bits
Stream size : 501 MiB (11%)
Alignment : Split accross interleaves
Interleave, duration : 40 ms (1.00 video frame)
Interleave, preload duration : 500 ms
Title : Rus MVO HTB+

Audio #3
ID : 3
Format : AC-3
Format/Info : Audio Coding 3
Mode extension : CM (complete main)
Codec ID : 2000
Duration : 3h 39mn
Bit rate mode : Constant
Bit rate : 320 Kbps
Channel(s) : 6 channels
Channel positions : Front: L C R, Side: L R, LFE
Sampling rate : 48.0 KHz
Bit depth : 16 bits
Stream size : 501 MiB (11%)
Alignment : Split accross interleaves
Interleave, duration : 40 ms (1.00 video frame)
Interleave, preload duration : 500 ms
Title : Rus AVO Gavrilov

Audio #4
ID : 4
Format : AC-3
Format/Info : Audio Coding 3
Mode extension : CM (complete main)
Codec ID : 2000
Duration : 3h 39mn
Bit rate mode : Constant
Bit rate : 320 Kbps
Channel(s) : 6 channels
Channel positions : Front: L C R, Side: L R, LFE
Sampling rate : 48.0 KHz
Bit depth : 16 bits
Stream size : 501 MiB (11%)
Alignment : Split accross interleaves
Interleave, duration : 40 ms (1.00 video frame)
Interleave, preload duration : 500 ms
Title : Original (English)

4-х дисковое DVD9 Delux Collector's Edition издание



Скачать Титаник.Titanic.(Джеймс.Кэмерон).[1997.Драма.Мелодрама.Любовный.DVDRip].[Расширенная.версия.с.альтернативной.концовкой.Extended.Cut.with.alternative.final.scene].[DUB].+.[MVO].+.[AVO].torrent без регистрации
Золото ЗОЛОТАЯ РАЗДАЧА! СКАЧАННОЕ НЕ ЗАСЧИТЫВАЕТСЯ! Золото
Дата: Зарегистрирован   [ Тип: внутренний ] Как тут cкачать?
MAGNET ссылка
MAGNET ссылка


Скачать .torrent

23 KB

Статус: проверено DHT
Скачан: торрент - 244 раз, раздача полностью - 210 раз
Размер: 4,33 GB
Оценка:  - (Голосов: 0)
Поблагодарили: 2
Поделиться ссылкой на эту раздачу с друзьями:
В контактеFacebookОдноклассникиTwitterLivejournalМой МирLiveinternet
 

 
Показать сообщения:    


Вы не можете начинать темы
Вы не можете отвечать на сообщения
Вы не можете редактировать свои сообщения
Вы не можете удалять свои сообщения
Вы не можете голосовать в опросах
Вы не можете прикреплять файлы к сообщениям
Вы можете скачивать файлы