Loading...
Error

Скачать Подпольная империя / Boardwalk Empire (Полный 3-ий сезон) (Тимоти Ван Паттен, Аллен Култер) [2012, драма, криминал, WEB-DLRip] [MVO] [LostFilm] торрент без регистрации

 
Статистика раздачи
Размер:  8,01 GB   |    Скачан:  574 раза
Сидов:  1  [  0 KB/s  ]  
 
Автор Сообщение

leon030982

[] 



Подпольная империя / Boardwalk Empire


Год выпуска: 2012
Страна: США
Жанр: Криминальная драма
Продолжительность: ~ 58 минут
Перевод: Профессиональный многоголосый закадровый - (Lostfilm)
Субтитры: Нет
Режиссёр: Тимоти Ван Паттен
В ролях: Стив Бушеми (Enoch «Nucky» Thompson), Майкл Питт (James «Jimmy» Darmody), Ши Уигхэм (Elias «Eli» Thompson), Майкл Шеннон (Agent Nelson Van Alden), Келли Макдоналд (Margaret Schroeder), Алекса Палладино (Angela Darmody), Майкл Сталберг (Arnold Rothstein), Стивен Грэм (Al Capone), Винсент Пьяцца, Пас де ла Уэрта (Lucy Danziger) и др.
Описание: События сериала Boardwalk Empire происходят в 1920, начале 1930 годов, во время рассвета сухого закона и итальянской мафии. В сериале представлены такие знаменитости криминального мира, как Сальваторе «Счастливчик» Лучиано и Аль Капоне. Главные герои, Наки Томпсон (в исполнении Стива Бушеми) – негласный правитель Атлантик-Сити, в равной степени гангстер и политик и его помошник Джимми Дармоди (Майкл Питт). Зрители сериала окунутся в грязный мир политики и игорного бизнеса, мафиозных разборок и зажигательного варьете.
Сериал снят по мотивам романа Нельсона Джонсона, посвященной зарождению одного из крупнейших игорных центров США — Атлантик-Сити. Роли в сериале исполняют мировые знаменитости — Стив Бушеми, Келли МакДональд, Майкл Шеннон, Майкл К. Уильямс и другие. Станет ли «Boardwalk Empire» таким же незабываемым сериалом как «The Sopranos» или «The Wire» покажет время.

Качество: WEB-DLRip
Формат: AVI
Видео кодек: XviD
Аудио кодек: AC-3
Видео: MPEG4, XviD, 720x400 (16/9), 23.976 fps, 1 199 Kbps (0.174 bit/pixel)
Аудио Rus: AC-3, 48.0 KHz, 2 ch, 192 Kbps, CBR |(Lostfilm)|
Аудио Eng: AC-3, 48.0 KHz, 2 ch, 192 Kbps, CBR |Original|

/ Сэмпл / ImDB / Кинопоиск
General
Complete name : I:\Подпольная империя Сезон 3 WEB-DLRip (LostFilm)\Boardwalk.Empire.S03E01.avi
Format : AVI
Format/Info : Audio Video Interleave
File size : 651 MiB
Duration : 56mn 59s
Overall bit rate : 1 597 Kbps
Writing application : VirtualDubMod 1.5.10.3 | www.virtualdub-fr.org || (build 2550/release)
Writing library : VirtualDubMod build 2550/release
Video
ID : 0
Format : MPEG-4 Visual
Format profile : Advanced Simple@L5
Format settings, BVOP : 1
Format settings, QPel : No
Format settings, GMC : No warppoints
Format settings, Matrix : Custom
Codec ID : XVID
Codec ID/Hint : XviD
Duration : 56mn 59s
Bit rate : 1 199 Kbps
Width : 720 pixels
Height : 400 pixels
Display aspect ratio : 16:9
Frame rate : 23.976 fps
Color space : YUV
Chroma subsampling : 4:2:0
Bit depth : 8 bits
Scan type : Progressive
Compression mode : Lossy
Bits/(Pixel*Frame) : 0.174
Stream size : 489 MiB (75%)
Writing library : XviD 63
Audio #1
ID : 1
Format : AC-3
Format/Info : Audio Coding 3
Mode extension : CM (complete main)
Codec ID : 2000
Duration : 56mn 59s
Bit rate mode : Constant
Bit rate : 192 Kbps
Channel(s) : 2 channels
Channel positions : Front: L R
Sampling rate : 48.0 KHz
Bit depth : 16 bits
Compression mode : Lossy
Stream size : 78.3 MiB (12%)
Alignment : Split accross interleaves
Interleave, duration : 42 ms (1.00 video frame)
Interleave, preload duration : 500 ms
Audio #2
ID : 2
Format : AC-3
Format/Info : Audio Coding 3
Mode extension : CM (complete main)
Codec ID : 2000
Duration : 56mn 59s
Bit rate mode : Constant
Bit rate : 192 Kbps
Channel(s) : 2 channels
Channel positions : Front: L R
Sampling rate : 48.0 KHz
Bit depth : 16 bits
Compression mode : Lossy
Stream size : 78.3 MiB (12%)
Alignment : Split accross interleaves
Interleave, duration : 42 ms (1.00 video frame)
Interleave, preload duration : 500 ms

[b]Внимание! Раздача ведётся путём добавления новых серий; при каждом добавлении создётся новый торрент. Чтобы начать докачку новой серии, пользователям необходимо сделать следующее:

1) остановить скачивание,
2) удалить старый торрент у себя из клиента (старые серии удалять не надо),
3) скачать новый торрент и запустить его у себя в клиенте вместо старого, при этом указать клиенту путь в старую папку куда и должно происходить скачивание новых серий.
Ваш клиент при этом должен произвести хеширование (проверку) старой папки (если не производит сам - помогите ему сделать это), и будет докачивать только те серии которых у вас ещё нет. Старые серии при этом не удаляются, а продолжают раздаваться!
Eсли вы уже удалили старые серии, то предотвратить повторную закачку старых серий можно, отжав галочку в соответсвующих местах при запуске нового торрента.

[align=center] [/font]



Скачать Подпольная.империя.Boardwalk.Empire.(Полный.3-ий.сезон).(Тимоти.Ван.Паттен.Аллен.Култер).[2012.драма.криминал.WEB-DLRip].[MVO].[LostFilm].torrent без регистрации
Золото ЗОЛОТАЯ РАЗДАЧА! СКАЧАННОЕ НЕ ЗАСЧИТЫВАЕТСЯ! Золото
Дата: Зарегистрирован   [ Тип: внутренний ] Как тут cкачать?
MAGNET ссылка
MAGNET ссылка


Скачать .torrent

41 KB

Статус: проверено DHT
Скачан: торрент - 574 раз, раздача полностью - 521 раз
Размер: 8,01 GB
Оценка:  5 (Голосов: 1)
Поблагодарили: 7
Поделиться ссылкой на эту раздачу с друзьями:
В контактеFacebookОдноклассникиTwitterLivejournalМой МирLiveinternet
 

 
Показать сообщения:    


Вы не можете начинать темы
Вы не можете отвечать на сообщения
Вы не можете редактировать свои сообщения
Вы не можете удалять свои сообщения
Вы не можете голосовать в опросах
Вы не можете прикреплять файлы к сообщениям
Вы можете скачивать файлы