Loading...
Error

/ Boardwalk Empire ( 3, 01-12 12) ( , ) [2012 ., , , , WEB-DL] [720p] [MVO] (LostFilm)

 
22,2 GB   |    :  345
1  [  0 KB/s  ]  
 

leon030982

[] 


/ Boardwalk Empire


: 4 / : 1-12 (12)
: | USA
: , ,
: 2012
: ~00:58:00
: ( ) / LostFilm /
C: ,
: , / Timothy Van Patten, Allen Coulter
:
(Enoch Nucky Thompson), (James Jimmy Darmody), (Elias Eli Thompson), (Agent Nelson Van Alden), (Margaret Schroeder), (Angela Darmody), (Arnold Rothstein), (Al Capone), , (Lucy Danziger) .

:
Boardwalk Empire 1920, 1930 , . , . , ( ) -, ( ). , . , -. , , , . . Boardwalk Empire The Sopranos The Wire .
| | | | |

: by Nez
: WEB-DL 720p
: MKV

: H.264 (AVC)
: AC3
: 1280x720 at 23.976 fps, MPEG-4 AVC, ~4000 kbps avg, ~0.190 bit/pixel
Rus: 48 kHz, AC3, 3/2 (L,C,R,l,r) + LFE ch, ~384.00 kbps avg / LostFilm /
Eng: 48 kHz, AC3, 3/2 (L,C,R,l,r) + LFE ch, ~384.00 kbps avg / /

[b]01. - 16.09.2012 - (Resolution)
02. - 23.09.2012 - (Spaghetti and Coffee)
03. - 30.09.2012 - (Bone for Tuna)
04. - 07.10.2012 - - (Blue Bell Boy)
05. - 14.10.2012 - (You'd Be Surprised)
06. - 21.10.2012 - (Ging Gang Goolie)
07. - 28.10.2012 - (Sunday Best)
08. - 04.11.2012 - (The Pony)
09. - 21.11.2012 - (The Milkmaid's Lot)
10. - 18.11.2012 - (A Man, a Plan...)

:

Video
ID : 1
Format : AVC
Format/Info : Advanced Video Codec
Format profile : High@L3.1
Format settings, CABAC : No
Format settings, ReFrames : 2 frames
Format settings, GOP : N=1
Codec ID : V_MPEG4/ISO/AVC
Duration : 56mn 59s
Bit rate : 3 875 Kbps
Width : 1 280 pixels
Height : 720 pixels
Display aspect ratio : 16:9
Frame rate : 23.976 fps
Color space : YUV
Chroma subsampling : 4:2:0
Bit depth : 8 bits
Scan type : Progressive
Bits/(Pixel*Frame) : 0.175
Stream size : 1.54 GiB (82%)
Title : Boardwalk Empire 3x01: Resolution / - Release for HDCLUB
Language : English
Default : Yes
Forced : No
Color primaries : BT.709-5, BT.1361, IEC 61966-2-4, SMPTE RP177
Transfer characteristics : BT.709-5, BT.1361
Matrix coefficients : BT.709-5, BT.1361, IEC 61966-2-4 709, SMPTE RP177
Audio #1
ID : 2
Format : AC-3
Format/Info : Audio Coding 3
Mode extension : CM (complete main)
Codec ID : A_AC3
Duration : 56mn 59s
Bit rate mode : Constant
Bit rate : 384 Kbps
Channel(s) : 6 channels
Channel positions : Front: L C R, Side: L R, LFE
Sampling rate : 48.0 KHz
Bit depth : 16 bits
Compression mode : Lossy
Stream size : 157 MiB (8%)
Title : LostFilm
Language : Russian
Default : Yes
Forced : No
Audio #2
ID : 3
Format : AC-3
Format/Info : Audio Coding 3
Mode extension : CM (complete main)
Muxing mode : Header stripping
Codec ID : A_AC3
Duration : 56mn 59s
Bit rate mode : Constant
Bit rate : 384 Kbps
Channel(s) : 6 channels
Channel positions : Front: L C R, Side: L R, LFE
Sampling rate : 48.0 KHz
Bit depth : 16 bits
Compression mode : Lossy
Stream size : 157 MiB (8%)
Language : English
Default : No
Forced : No
Text
ID : 4
Format : UTF-8
Codec ID : S_TEXT/UTF8
Codec ID/Info : UTF-8 Plain Text
Language : English
Default : No
Forced : No


!


! ; . , :
(1) ,
(2) ( ),
(3) , .
() ( - ), . , !
E , , .
12



..Boardwalk.Empire.(.3..01-12..12).(....).[2012.....WEB-DL].[720p].[MVO].(LostFilm).torrent
  ! ! 
:   [ : ] c?
MAGNET
MAGNET


.torrent

113 KB

: DHT
: - 345 , - 2
: 22,2 GB
- (: 0)
: 1
:
 FacebookTwitterLivejournal Liveinternet
 

 
: