Loading...
Error

Скачать Приключения Посейдона / The Poseidon Adventure (Джон Путч) [2005, боевик, триллер, драма, приключения, DVDRip] [DVO] торрент без регистрации

 
Статистика раздачи
Размер:  2,19 GB   |    Скачан:  104 раза
Сидов:  1  [  0 KB/s  ]  
 
Автор Сообщение

Marsianka

[] 

Страна: США
Жанр: боевик, триллер, драма, приключения
Год выпуска: 2005
Продолжительность: 2:54:09 (01:28:04 + 01:26:05)

Перевод: Профессиональный (двухголосый закадровый)
Cубтитры: нет
Оригинальная аудиодорожка: нет

Режиссеры: Джон Путч / John Putch

В ролях: Адам Болдуин, Рутгер Хауэр, Стив Гуттенберг, Брайан Браун, Си Томас Хауэлл, Питер Уэллер, Алекс Кингстон, Алекса Хэмилтон, Клайв Мэнтл, Сильвия Симс, Эмбер Сейнсбери, Рори Копус, Тайнери Ван Вик, Питер Батлер, Эндрю Брэнт, Натали Болтт, Рассел Савадьер, Фаруг Велли Омар, Дэйл Абрахамс, Мэтт Риппи, Ив Шапира, Кэти Феррингер, Дамисани Мбебе, Шейн Мэйн, Эдриан Гелли...

Описание: Добро пожаловать на борт «Посейдона» настоящего плавучего города. Среди его двух с половиной тысяч пассажиров находится Майк Рого, тайный агент американского министерства безопасности. А среди команды, насчитывающей более тысячи человек, спрятался террорист Касим, намеревающийся потрясти мир новым ужасным терактом.
Узнав об опасности, капитан «Посейдона» на полном ходу направляет лайнер к ближайшему порту. Но катастрофу уже не предотвратить. Через несколько минут после наступления нового года на борту корабля раздается взрыв. Многотонный монстр медленно погружается в черные океанские глубины. Пока оставшиеся в живых отчаянно борются за жизнь и пробиваются наверх к днищу «Посейдона», Рого и Касим ведут между собой борьбу

Исходник: DVD9 R5
Тип релиза: DVDRip
Контейнер: AVI

Видео: 720x400 (16:9), 23,976 fps, XviD ~ 1340 kbps avg, 0.194 bit/pixel
Аудио: 48 kHz, AC3, 6 ch, 448.00 kbps

Раздача от:

Общее
Полное имя : Prikljuchenie.Posejdona.2005.DVDRip.avi
Формат : AVI
Формат/Информация : Audio Video Interleave
Размер файла : 1,11 Гбайт
Продолжительность : 1 ч. 28 м.
Общий поток : 1798 Кбит/сек
Программа кодирования : VirtualDubMod 1.5.10.3 | www.virtualdub-fr.org || (build 2550/release)
Библиотека кодирования : VirtualDubMod build 2550/release

Видео
Идентификатор : 0
Формат : MPEG-4 Visual
Профиль формата : Advanced Simple@L5
Параметр BVOP формата : 1
Параметр QPel формата : Нет
Параметр GMC формата : Без точки перехода
Параметр матрицы формата : Выборочная
Идентификатор кодека : XVID
Идентификатор кодека/Подсказка : XviD
Продолжительность : 1 ч. 28 м.
Битрейт : 1340 Кбит/сек
Ширина : 720 пикселей
Высота : 400 пикселей
Соотношение сторон : 16:9
Частота кадров : 23,976 кадра/сек
Цветовое пространство : YUV
Субдискретизация насыщенности : 4:2:0
Битовая глубина : 8 бит
Тип развёртки : Прогрессивная
Метод сжатия : С потерями
Бит/(Пиксели*Кадры) : 0.194
Размер потока : 844 Мбайт (75%)
Библиотека кодирования : XviD 65

Аудио
Идентификатор : 1
Формат : AC-3
Формат/Информация : Audio Coding 3
Расширение режима : CM (complete main)
Идентификатор кодека : 2000
Продолжительность : 1 ч. 28 м.
Вид битрейта : Постоянный
Битрейт : 448 Кбит/сек
Каналы : 6 каналов
Расположение каналов : Front: L C R, Side: L R, LFE
Частота : 48,0 КГц
Битовая глубина : 16 бит
Метод сжатия : С потерями
Размер потока : 282 Мбайт (25%)
Выравнивание : Разделение по промежуткам
Продолжительность промежутка : 42 мс. (1,00 видеокадр)
Время предзагрузки промежутка : 500 мс



Скачать Приключения.Посейдона.The.Poseidon.Adventure.(Джон.Путч).[2005.боевик.триллер.драма.приключения.DVDRip].[DVO].torrent без регистрации
Золото ЗОЛОТАЯ РАЗДАЧА! СКАЧАННОЕ НЕ ЗАСЧИТЫВАЕТСЯ! Золото
Дата: Зарегистрирован   [ Тип: внутренний ] Как тут cкачать?
MAGNET ссылка
MAGNET ссылка


Скачать .torrent

12 KB

Статус: проверено DHT
Скачан: торрент - 104 раз, раздача полностью - 1 раз
Размер: 2,19 GB
Оценка:  - (Голосов: 0)
Поблагодарили: 0
Поделиться ссылкой на эту раздачу с друзьями:
В контактеFacebookОдноклассникиTwitterLivejournalМой МирLiveinternet
 

 
Показать сообщения:    


Вы не можете начинать темы
Вы не можете отвечать на сообщения
Вы не можете редактировать свои сообщения
Вы не можете удалять свои сообщения
Вы не можете голосовать в опросах
Вы не можете прикреплять файлы к сообщениям
Вы можете скачивать файлы