Loading...
Error

Скачать Копы-новобранцы / Rookie Blue (Полный 3-ий сезон) (Дэвид Веллингтон, Джон Фосетт, Стив Димарко и др.) [2012 г., драма, криминал, WEB-DL] [720p] [MVO] (Diva Universal) торрент без регистрации

 
Статистика раздачи
Размер:  18,19 GB   |    Скачан:  153 раза
Сидов:  1  [  0 KB/s  ]  
 
Автор Сообщение

leon030982

[] 



Копы-новобранцы / Rookie Blue


Год выпуска: 2012
Страна: США, Канада | ABC
Жанр: Драма, криминал
Продолжительность: ~ 42 минуты
Перевод: Профессиональный (многоголосый, закадровый) - Diva Universal
Субтитры: Нет
Режиссёр: Дэвид Веллингтон / David Wellington, Джон Фосетт / John Fawcett, Стив Димарко / Steve DiMarco и др.
В ролях: Мисси Перегрим, Энука Окума, Трэвис Милн, Шарлотта Салливан, Ноам Дженкинс, Мелани Николллз-Кинг, Бен Басс, Грегори Смит и др.
Описание: Эти новички вместе учились в полицейской академии. Они вместе зубрили правила, вместе дрались, пили и спали. А теперь им предстоит вместе работать и на собственном опыте познавать самые тяжелые стороны этой профессии. Они везде первые – первые на месте преступления и перед лицом опасности. Они сидят за рулем полицейской машины, патрулируя свой район, и никогда не знают, что принесет им следующий день – мертвое тело, жестокое проникновение в дом, аресты клиентов проституток или наркоторговцев. «Копы» — это драма об испытаниях и триумфах, дружбе и соперничестве в большой семье, состоящей из новичков, их возлюбленных, лучших друзей и друзей-врагов. Эта компания двадцатилетних вскоре узнает на своем горьком опыте, что как бы долго и усердно ты не учился, это не сможет подготовить тебя к настоящей работе… и к настоящей жизни.
Качество: WEB-DL 720p
Формат: MKV
Видео кодек: H.264
Аудио кодек: AC3
Видео: AVC, 1280x720 (16/9), 23.976 fps, 4 097 Kbps (0.185 bit/pixel)
Аудио Rus: AC-3, 48.0 KHz, 2 ch, 192 Kbps, CBR |Diva Universal|
Аудио Eng: AC-3, 48.0 KHz, 6 ch, 384 Kbps, CBR |Original|
Релиз:
Озвучка: Diva Universal
Звук предоставил: jetsam, baggio
Подготовка видео: Baggio
Работа со звуком: Baggio
/ Сэмпл / ImDB / Кинопоиск

General
Unique ID : 202896620394291249736296202788746200861 (0x98A477BA16A0F6A68FE645A2D0D2871D)
Complete name : I:\ЗАКАЧКИ\Rookie.Blue.s03e01.WEBDL.720p.NewStudio.TV.mkv
Format : Matroska
File size : 1.43 GiB
Duration : 43mn 4s
Overall bit rate : 4 768 Kbps
Encoded date : UTC 2012-10-14 19:12:19
Writing application : mkvmerge v2.9.9 ('Tutu') built on Nov 25 2009 21:13:32
Writing library : libebml v0.7.9 + libmatroska v0.8.1
Video
ID : 1
Format : AVC
Format/Info : Advanced Video Codec
Format profile : High@L3.1
Format settings, CABAC : No
Format settings, ReFrames : 2 frames
Format settings, GOP : M=2, N=24
Codec ID : V_MPEG4/ISO/AVC
Duration : 43mn 4s
Bit rate : 4 097 Kbps
Width : 1 280 pixels
Height : 720 pixels
Display aspect ratio : 16:9
Frame rate : 23.976 fps
Color space : YUV
Chroma subsampling : 4:2:0
Bit depth : 8 bits
Scan type : Progressive
Bits/(Pixel*Frame) : 0.185
Stream size : 1.23 GiB (86%)
Language : English
Color primaries : BT.709-5, BT.1361, IEC 61966-2-4, SMPTE RP177
Transfer characteristics : BT.709-5, BT.1361
Matrix coefficients : BT.709-5, BT.1361, IEC 61966-2-4 709, SMPTE RP177
Audio #1
ID : 2
Format : AC-3
Format/Info : Audio Coding 3
Mode extension : CM (complete main)
Codec ID : A_AC3
Duration : 43mn 4s
Bit rate mode : Constant
Bit rate : 192 Kbps
Channel(s) : 2 channels
Channel positions : Front: L R
Sampling rate : 48.0 KHz
Bit depth : 16 bits
Compression mode : Lossy
Stream size : 59.2 MiB (4%)
Audio #2
ID : 3
Format : AC-3
Format/Info : Audio Coding 3
Mode extension : CM (complete main)
Codec ID : A_AC3
Duration : 43mn 4s
Bit rate mode : Constant
Bit rate : 384 Kbps
Channel(s) : 6 channels
Channel positions : Front: L C R, Side: L R, LFE
Sampling rate : 48.0 KHz
Bit depth : 16 bits
Compression mode : Lossy
Stream size : 118 MiB (8%)
Language : English


Внимание! Раздача ведётся путём добавления новых серий; при каждом добавлении создётся новый торрент. Чтобы начать докачку новой серии, пользователям необходимо сделать следующее:

1) остановить скачивание,
2) удалить старый торрент у себя из клиента (старые серии удалять не надо),
3) скачать новый торрент и запустить его у себя в клиенте вместо старого, при этом указать клиенту путь в старую папку куда и должно происходить скачивание новых серий.
Ваш клиент при этом должен произвести хеширование (проверку) старой папки (если не производит сам - помогите ему сделать это), и будет докачивать только те серии которых у вас ещё нет. Старые серии при этом не удаляются, а продолжают раздаваться!
Eсли вы уже удалили старые серии, то предотвратить повторную закачку старых серий можно, отжав галочку в соответсвующих местах при запуске нового торрента.

[align=center] [/font]



Скачать Копы-новобранцы.Rookie.Blue.(Полный.3-ий.сезон).(Дэвид.Веллингтон.Джон.Фосетт.Стив.Димарко.и.др.).[2012.г.драма.криминал.WEB-DL].[720p].[MVO].(Diva.Universal).torrent без регистрации
Золото ЗОЛОТАЯ РАЗДАЧА! СКАЧАННОЕ НЕ ЗАСЧИТЫВАЕТСЯ! Золото
Дата: Зарегистрирован   [ Тип: внутренний ] Как тут cкачать?
MAGNET ссылка
MAGNET ссылка


Скачать .torrent

93 KB

Статус: проверено DHT
Скачан: торрент - 153 раз, раздача полностью - 4 раз
Размер: 18,19 GB
Оценка:  - (Голосов: 0)
Поблагодарили: 0
Поделиться ссылкой на эту раздачу с друзьями:
В контактеFacebookОдноклассникиTwitterLivejournalМой МирLiveinternet
 

 

leon030982

[] 

обновлено az
 
Показать сообщения:    


Вы не можете начинать темы
Вы не можете отвечать на сообщения
Вы не можете редактировать свои сообщения
Вы не можете удалять свои сообщения
Вы не можете голосовать в опросах
Вы не можете прикреплять файлы к сообщениям
Вы можете скачивать файлы