Loading...
Error

Скачать Порнографические связи / Une liaison pornographique (Фредерик Фонтейн) [1999, драма, мелодрама, DVDRip] [MVO] торрент без регистрации

 
Статистика раздачи
Размер:  744 MB   |    Скачан:  160 раз
Сидов:  1  [  0 KB/s  ]  
 
Автор Сообщение

Marsianka

[] 

Информация о фильме
Название: Порнографические связи
Оригинальное название: Une liaison pornographique
Год выхода: 1999
Жанр: драма, мелодрама
Режиссер: Фредерик Фонтейн / Frederic Fonteyne
В ролях: Натали Бэй /Nathalie Baye/, Сержи Лопес /Sergi Lopez/, Жак Виала /Jacques Viala/, Поль Павель /Paul Pavel/, Сильви Ван Ден Эльзен /Sylvie Van Den Elsen/, Пьер Жаранио /Pierre Geranio/, Эрве Сонье /Herve Sogne/, Кристоф Серме /Christophe Sermet/

О фильме:
Испуганные прежними любовными неудачами два чужих человека хотят друг от друга просто секса. Но на холодной постели гостиничного номера, вопреки всему, рождается прежде неизведанное чувство. Как же они поступят с этой неожиданной любовью



Страна: Франция, Швейцария, Бельгия, Люксембург
Студия: ARP S™lection, Art™mis Productions, Canal+
Продолжительность: 01:17:52
Перевод: Профессиональный (многоголосый, закадровый)

Файл
Кодек: XviD / MP3
Качество: DVDRip
Видео: XviD, 720x384 (1.875), 25.000 fps, 1 200 Kbps (0.174 bit/pixel)
Звук: MP3, 48.0 KHz, 2 ch, 128 Kbps, CBR (Russian)
General
Complete name : /media/Une.liaison.pornographique_DVDRip.MVO.745_[Rutor.org].avi
Format : AVI
Format/Info : Audio Video Interleave
File size : 744 MiB
Duration : 1h 17mn
Overall bit rate : 1 336 Kbps
Writing application : VirtualDubMod 1.5.4.1 (build 2178/release)
Writing library : VirtualDubMod build 2178/release

Video
ID : 0
Format : MPEG-4 Visual
Format profile : Advanced Simple@L5
Format settings, BVOP : 1
Format settings, QPel : No
Format settings, GMC : No warppoints
Format settings, Matrix : Custom
Codec ID : XVID
Codec ID/Hint : XviD
Duration : 1h 17mn
Bit rate : 1 200 Kbps
Width : 720 pixels
Height : 384 pixels
Display aspect ratio : 1.85:1
Frame rate : 25.000 fps
Color space : YUV
Chroma subsampling : 4:2:0
Bit depth : 8 bits
Scan type : Progressive
Compression mode : Lossy
Bits/(Pixel*Frame) : 0.174
Stream size : 669 MiB (90%)
Writing library : XviD 65

Audio
ID : 1
Format : MPEG Audio
Format version : Version 1
Format profile : Layer 3
Mode : Joint stereo
Mode extension : MS Stereo
Codec ID : 55
Codec ID/Hint : MP3
Duration : 1h 17mn
Bit rate mode : Constant
Bit rate : 128 Kbps
Channel(s) : 2 channels
Sampling rate : 48.0 KHz
Compression mode : Lossy
Stream size : 71.3 MiB (10%)
Alignment : Aligned on interleaves
Interleave, duration : 80 ms (2.00 video frames)
Interleave, preload duration : 504 ms
Writing library : LAME3.99r
Encoding settings : -m j -V 4 -q 2 -lowpass 17 -b 128
Language : Russian



Скачать Порнографические.связи.Une.liaison.pornographique.(Фредерик.Фонтейн).[1999.драма.мелодрама.DVDRip].[MVO].torrent без регистрации
Золото ЗОЛОТАЯ РАЗДАЧА! СКАЧАННОЕ НЕ ЗАСЧИТЫВАЕТСЯ! Золото
Дата: Зарегистрирован   [ Тип: внутренний ] Как тут cкачать?
MAGNET ссылка
MAGNET ссылка


Скачать .torrent

30 KB

Статус: проверено DHT
Скачан: торрент - 160 раз, раздача полностью - 50 раз
Размер: 744 MB
Оценка:  - (Голосов: 0)
Поблагодарили: 1
Поделиться ссылкой на эту раздачу с друзьями:
В контактеFacebookОдноклассникиTwitterLivejournalМой МирLiveinternet
 

 
Показать сообщения:    


Вы не можете начинать темы
Вы не можете отвечать на сообщения
Вы не можете редактировать свои сообщения
Вы не можете удалять свои сообщения
Вы не можете голосовать в опросах
Вы не можете прикреплять файлы к сообщениям
Вы можете скачивать файлы