Loading...
Error

Скачать Кит / Keith (Тодд Кесслер) [2008, драма, мелодрама, HDTVRip-AVC] [DVO] торрент без регистрации

 
Статистика раздачи
Размер:  1,42 GB   |    Скачан:  105 раз
Сидов:  1  [  0 KB/s  ]  
 
Автор Сообщение

Marsianka

[] 

Информация о фильме
Название: Кит
Оригинальное название: Keith
Год выхода: 2008
Жанр: драма, мелодрама
Режиссер: Тодд Кесслер / Todd Kessler
В ролях: Джесси МакКартни, Элизабет Арнуа, Табита Браунстоун, Рон Карлсон, Виктория Чалая, Дэннис Кокрум, Жан Деверо, Майкл Брайан Френч, Дженнифер Грэй, Тим Халлиган

О фильме: Семнадцатилетняя Натали Андерсон одна из самых успешных и целеустремленных учениц школы. Не удивительно, что своего одноклассника Кита Зеттерстрома, обычного, ничем не примечательного парня, она не замечает до тех пор, пока им не дают общее задание. И происходит неожиданное: Натали влюбляется. Чувствуя, что парень что-то скрывает от неё, девушка решает докопаться до его тайны



Выпущено: США
Продолжительность: 1:34:53
Перевод: Профессиональный (двухголосый закадровый) НТВ+
Дата релиза: 16.10.2012

Файл
Кодек: H264
Качество: HDTVRip-AVC
Видео: MPEG-4 AVC, 1700 Кбит/с, 1024x436
Звук: Русский (AC3, 6 ch, 384 Кбит/с)
Общее
Уникальный идентификатор : 240713828467383790545533091901809778968 (0xB517CC09FBE2F46BBE84D77714A66118)
Полное имя : G:8Kit.2008.x264.HDTVRip.(AVC).ExKinoRay.mkv
Формат : Matroska
Версия формата : Version 2
Размер файла : 1,42 Гбайт
Продолжительность : 1 ч. 34 м.
Общий поток : 2149 Кбит/сек
Название фильма : Kit.2008.x264.HDTVRip.(AVC).ExKinoRay
Дата кодирования : UTC 2012-10-16 17:40:18
Программа кодирования : mkvmerge v4.0.0 ('The Stars were mine') сборка от Jun 6 2010 16:18:42
Библиотека кодирования : libebml v1.0.0 + libmatroska v1.0.0

Видео
Идентификатор : 1
Формат : AVC
Формат/Информация : Advanced Video Codec
Профиль формата : High@L4.1
Параметр CABAC формата : Да
Параметр ReFrames формата : 8 кадров
Идентификатор кодека : V_MPEG4/ISO/AVC
Продолжительность : 1 ч. 34 м.
Битрейт : 1700 Кбит/сек
Ширина : 1024 пикселя
Высота : 436 пикселей
Соотношение сторон : 2,35:1
Частота кадров : 25,000 кадров/сек
Цветовое пространство : YUV
Субдискретизация насыщенности : 4:2:0
Битовая глубина : 8 бит
Тип развёртки : Прогрессивная
Бит/(Пиксели*Кадры) : 0.152
Размер потока : 1,10 Гбайт (77%)
Заголовок : Rip by Enigma-Vladislav71
Библиотека кодирования : x264 core 116 r2074 2641b9e
Настройки программы : cabac=1 / ref=8 / deblock=1:-2:-2 / analyse=0x3:0x133 / me=umh / subme=11 / psy=1 / psy_rd=1.00:0.00 / mixed_ref=1 / me_range=48 / chroma_me=1 / trellis=2 / 8x8dct=1 / cqm=0 / deadzone=21,11 / fast_pskip=0 / chroma_qp_offset=-2 / threads=3 / sliced_threads=0 / nr=0 / decimate=1 / interlaced=0 / bluray_compat=0 / constrained_intra=0 / bframes=8 / b_pyramid=2 / b_adapt=2 / b_bias=0 / direct=3 / weightb=1 / open_gop=0 / weightp=2 / keyint=250 / keyint_min=25 / scenecut=40 / intra_refresh=0 / rc=2pass / mbtree=0 / bitrate=1700 / ratetol=1.0 / qcomp=0.60 / qpmin=10 / qpmax=51 / qpstep=4 / cplxblur=20.0 / qblur=0.5 / ip_ratio=1.40 / pb_ratio=1.30 / aq=2:1.00
Язык : English
Default : Нет
Forced : Нет

Аудио
Идентификатор : 2
Формат : AC-3
Формат/Информация : Audio Coding 3
Расширение режима : CM (complete main)
Идентификатор кодека : A_AC3
Продолжительность : 1 ч. 34 м.
Вид битрейта : Постоянный
Битрейт : 448 Кбит/сек
Каналы : 2 канала
Расположение каналов : Front: L R
Частота : 48,0 КГц
Битовая глубина : 16 бит
Метод сжатия : С потерями
Размер потока : 304 Мбайт (21%)
Язык : Russian
Default : Да
Релиз от:

Авторы релиза:



Скачать Кит.Keith.(Тодд.Кесслер).[2008.драма.мелодрама.HDTVRip-AVC].[DVO].torrent без регистрации
Золото ЗОЛОТАЯ РАЗДАЧА! СКАЧАННОЕ НЕ ЗАСЧИТЫВАЕТСЯ! Золото
Дата: Зарегистрирован   [ Тип: внутренний ] Как тут cкачать?
MAGNET ссылка
MAGNET ссылка


Скачать .torrent

15 KB

Статус: проверено DHT
Скачан: торрент - 105 раз, раздача полностью - 14 раз
Размер: 1,42 GB
Оценка:  - (Голосов: 0)
Поблагодарили: 1
Поделиться ссылкой на эту раздачу с друзьями:
В контактеFacebookОдноклассникиTwitterLivejournalМой МирLiveinternet
 

 
Показать сообщения:    


Вы не можете начинать темы
Вы не можете отвечать на сообщения
Вы не можете редактировать свои сообщения
Вы не можете удалять свои сообщения
Вы не можете голосовать в опросах
Вы не можете прикреплять файлы к сообщениям
Вы можете скачивать файлы