Loading...
Error

Скачать Босс / Boss (Сезон 2, серии 01-10 из 10) (Фарад Сафиния) [2012 г., драма, HDTV] [720p] [Original] + [rus sub] (notabenoid) торрент без регистрации

 
Статистика раздачи
Размер:  10,83 GB   |    Скачан:  154 раза
Сидов:  1  [  0 KB/s  ]  
 
Автор Сообщение

leon030982

[] 


Босс / Boss / 2 сезон / Серии: 1-10

Год выпуска: 2012
Страна: США
Жанр: драма
Продолжительность: ~00:55:00
Перевод: Субтитры
Русские субтитры: есть (Илья Белкин: 1-3 серии, notabenoid: 4-8 серии)
Режиссёр: Фарад Сафиния
В ролях: Келси Грэммер, Rotimi Akinosho, Джеймс Винсент Мередит, José María Mendiola, Кэтлин Робертсон, Ханна Уэр, Джефф Хефнер, Стив Ленц, Анита Николь Браун, Николь Скотт, Мино Макич, Пол Д. Морган, Мартин Донован, Дэниэл Боутон, Дэбби Барнс, Томас Косик, Русс Панзарелла, Кристиан Столте.
Описание: Сюжет рассказывает о мэре Чикаго, страдающем тяжелым психическим заболеванием и, в результате, нарушениями памяти и рассудка, но окружающие, включая и его жену, об этом не догадываются.
| | | Сэмпл
Качество: HDTVRip 720p
Формат: MKV
Видео кодек: H.264
Аудио кодек: AC3
Видео: 1280x720 (16:9), 23.976 fps, H.264, ~2,4 Mbps, 0.110 bit/pixel
Аудио: 48 kHz, AC3, 3/2 (L,C,R,l,r) + LFE ch, ~384.00 kbps avg
Format : Matroska
File size : 1.15 GiB
Duration : 57mn 19s
Overall bit rate : 2 881 Kbps
Encoded date : UTC 2012-08-18 02:04:20
Writing application : mkvmerge v5.7.0 ('The Whirlwind') built on Jul 8 2012 20:08:51
Writing library : libebml v1.2.3 + libmatroska v1.3.0
Video
ID : 1
Format : AVC
Format/Info : Advanced Video Codec
Format profile : High@L4.1
Format settings, CABAC : Yes
Format settings, ReFrames : 5 frames
Muxing mode : Container profile=Unknown@4.1
Codec ID : V_MPEG4/ISO/AVC
Duration : 57mn 19s
Bit rate : 2 440 Kbps
Width : 1 280 pixels
Height : 720 pixels
Display aspect ratio : 16:9
Frame rate : 23.976 fps
Color space : YUV
Chroma subsampling : 4:2:0
Bit depth : 8 bits
Scan type : Progressive
Bits/(Pixel*Frame) : 0.110
Stream size : 1 000 MiB (85%)
Writing library : x264 core 125 r2208 d9d2288
Encoding settings : cabac=1 / ref=5 / deblock=1:0:0 / analyse=0x3:0x113 / me=umh / subme=8 / psy=1 / psy_rd=1.00:0.00 / mixed_ref=1 / me_range=16 / chroma_me=1 / trellis=1 / 8x8dct=1 / cqm=0 / deadzone=21,11 / fast_pskip=1 / chroma_qp_offset=-2 / threads=18 / lookahead_threads=3 / sliced_threads=0 / nr=0 / decimate=1 / interlaced=0 / bluray_compat=0 / constrained_intra=0 / bframes=3 / b_pyramid=2 / b_adapt=2 / b_bias=0 / direct=3 / weightb=1 / open_gop=0 / weightp=2 / keyint=250 / keyint_min=23 / scenecut=40 / intra_refresh=0 / rc_lookahead=50 / rc=crf / mbtree=1 / crf=18.0 / qcomp=0.60 / qpmin=0 / qpmax=69 / qpstep=4 / ip_ratio=1.40 / aq=1:1.00
Matrix coefficients : BT.709-5, BT.1361, IEC 61966-2-4 709, SMPTE RP177
Audio
ID : 2
Format : AC-3
Format/Info : Audio Coding 3
Mode extension : CM (complete main)
Codec ID : A_AC3
Duration : 57mn 19s
Bit rate mode : Constant
Bit rate : 384 Kbps
Channel(s) : 2 channels
Channel positions : Front: L R
Sampling rate : 48.0 KHz
Stream size : 157 MiB (13%)
Раздача ведётся путём добавления новых серий; при каждом добавлении создаётся новый торрент. Чтобы начать докачку новой серии, пользователям необходимо сделать следующее:
(1) остановить скачивание,
(2) удалить старый торрент у себя из клиента (старые серии удалять не надо),
(3) скачать новый торрент и запустить его у себя в клиенте вместо старого, при этом указать клиенту путь в старую папку куда и должно происходить скачивание новых серий.
Ваш клиент при этом должен произвести хеширование (проверку) старой папки (если не производит сам - помогите ему сделать это), и будет докачивать только те серии которых у вас ещё нет. Старые серии при этом не удаляются, а продолжают раздаваться!
Если вы уже удалили старые серии, то предотвратить повторную закачку старых серий можно, отжав галочку в соответствующих местах при запуске нового торрента. По возможности, желательно не удалять старые серии как можно дольше чтобы релизёр не столько продолжал раздавать старые серии, а смог сконцентрироваться на новых.



Скачать Босс.Boss.(Сезон.2.серии.01-10.из.10).(Фарад.Сафиния).[2012.г.драма.HDTV].[720p].[Original].+.[rus.sub].(notabenoid).torrent без регистрации
Золото ЗОЛОТАЯ РАЗДАЧА! СКАЧАННОЕ НЕ ЗАСЧИТЫВАЕТСЯ! Золото
Дата: Зарегистрирован   [ Тип: внутренний ] Как тут cкачать?
MAGNET ссылка
MAGNET ссылка


Скачать .torrent

56 KB

Статус: проверено DHT
Скачан: торрент - 154 раз, раздача полностью - 17 раз
Размер: 10,83 GB
Оценка:  - (Голосов: 0)
Поблагодарили: 0
Поделиться ссылкой на эту раздачу с друзьями:
В контактеFacebookОдноклассникиTwitterLivejournalМой МирLiveinternet
 

 

Joshua

[] 

Где 720p?
 

leon030982

[] 

Joshua писал(а):

Где 720p?
тут наверно : Видео: 1280x720 ab
 

Joshua

[] 

leon030982
Перепутал раздачи.
Озвучка от New Studio скоро?
 

leon030982

[] 

Joshua писал(а):

leon030982
Перепутал раздачи.
Озвучка от New Studio скоро?
пока вот http://goldenshara.com/viewtopic.php?t=181067 ab обновляю по мере выхода ab 720 залью если нужно
 
Показать сообщения:    


Вы не можете начинать темы
Вы не можете отвечать на сообщения
Вы не можете редактировать свои сообщения
Вы не можете удалять свои сообщения
Вы не можете голосовать в опросах
Вы не можете прикреплять файлы к сообщениям
Вы можете скачивать файлы