Loading...
Error

Скачать Босс / Boss (Сезон 1, серии 01-08 из 8) (Марио Ван Пиблз, Джим МакКей, Гас Ван Сент) [2011, Драма, BDRip] [720p] [DVO] (NewStudio / БЯКО Рекордс) + [Original] + [rus sub] торрент без регистрации

 
Статистика раздачи
Размер:  19,61 GB   |    Скачан:  138 раз
Сидов:  1  [  0 KB/s  ]  
 
Автор Сообщение

leon030982

[] 

Босс / Boss / Сезон: 1

Год выпуска: 2011
Страна: США
Жанр: Драма
Продолжительность: ~00:58:30
Перевод: Профессиональный двухголосый (NewStudio / БЯКО Рекордс)
Русские субтитры: есть
Автор перевода: Илья Белкин (Volverine73)
Субтитры: Русские и Английские

Режиссёр: Марио Ван Пиблз, Джим МакКей, Гас Ван Сент

В ролях: Келси Грэммер, Конни Нильсен, Джеймс Винсент Мередит, Кэтлин Робертсон, Ханна Уэр, Джефф Хефнер, Стив Ленц, Анита Николь Браун

Описание: Сюжет рассказывает о мэре Чикаго, страдающем тяжелым психическим заболеванием и, в результате, нарушениями памяти и рассудка, но окружающие, включая и его жену, об этом не догадываются.



Сэмпл
Качество: BDRip 720p
Формат: MKV
Видео кодек: H.264
Аудио кодек: AC3
Видео: AVC, 1280x720, 23.976, ~4 962 Kbps avg, 0.225 bit/pixel
Аудио 1: AC3, 48.0 KHz, 6 ch, ~384 Kbps Rus
Аудио 2: DTS, 48.0 KHz, 6 ch, ~1 510 Kbps Original
General
Unique ID : 241677934501835504133138921401147508700 (0xB5D17A22EDD2CB2A836E7B992C0CC7DC)
Complete name : E:\video\serials\Boss.s01.BDRip.720p\Boss.S01E01.Listen.720p.BluRay.X264-CLUE.mkv
Format : Matroska
Format version : Version 2
File size : 2.80 GiB
Duration : 58mn 32s
Overall bit rate : 6 857 Kbps
Encoded date : UTC 2012-09-23 14:11:46
Writing application : mkvmerge v5.8.0 ('No Sleep / Pillow') built on Sep 2 2012 15:37:04
Writing library : libebml v1.2.3 + libmatroska v1.3.0
Video
ID : 1
Format : AVC
Format/Info : Advanced Video Codec
Format profile : High@L4.1
Format settings, CABAC : Yes
Format settings, ReFrames : 5 frames
Codec ID : V_MPEG4/ISO/AVC
Bit rate : 4 962 Kbps
Width : 1 280 pixels
Height : 720 pixels
Display aspect ratio : 16:9
Frame rate mode : Variable
Original frame rate : 23.976 fps
Color space : YUV
Chroma subsampling : 4:2:0
Bit depth : 8 bits
Scan type : Progressive
Bits/(Pixel*Frame) : 0.225
Writing library : x264 core 125 r2200 999b753
Encoding settings : cabac=1 / ref=5 / deblock=1:0:0 / analyse=0x3:0x133 / me=umh / subme=7 / psy=1 / psy_rd=1.00:0.00 / mixed_ref=1 / me_range=16 / chroma_me=1 / trellis=1 / 8x8dct=1 / cqm=0 / deadzone=21,11 / fast_pskip=0 / chroma_qp_offset=-2 / threads=12 / lookahead_threads=2 / sliced_threads=0 / nr=0 / decimate=1 / interlaced=0 / bluray_compat=0 / constrained_intra=0 / bframes=3 / b_pyramid=2 / b_adapt=1 / b_bias=0 / direct=1 / weightb=1 / open_gop=0 / weightp=2 / keyint=250 / keyint_min=23 / scenecut=40 / intra_refresh=0 / rc_lookahead=40 / rc=2pass / mbtree=1 / bitrate=4962 / ratetol=1.0 / qcomp=0.60 / qpmin=0 / qpmax=69 / qpstep=4 / cplxblur=20.0 / qblur=0.5 / ip_ratio=1.40 / aq=1:1.00
Language : English
Default : Yes
Forced : No
Audio #1
ID : 2
Format : AC-3
Format/Info : Audio Coding 3
Mode extension : CM (complete main)
Format settings, Endianness : Big
Codec ID : A_AC3
Duration : 58mn 32s
Bit rate mode : Constant
Bit rate : 384 Kbps
Channel(s) : 6 channels
Channel positions : Front: L C R, Side: L R, LFE
Sampling rate : 48.0 KHz
Bit depth : 16 bits
Compression mode : Lossy
Delay relative to video : 885ms
Stream size : 161 MiB (6%)
Language : Russian
Default : Yes
Forced : No
Audio #2
ID : 3
Format : DTS
Format/Info : Digital Theater Systems
Codec ID : A_DTS
Duration : 58mn 32s
Bit rate mode : Constant
Bit rate : 1 510 Kbps
Channel(s) : 6 channels
Channel positions : Front: L C R, Side: L R, LFE
Sampling rate : 48.0 KHz
Bit depth : 24 bits
Compression mode : Lossy
Stream size : 632 MiB (22%)
Language : English
Default : No
Forced : No
Text #1
ID : 4
Format : UTF-8
Codec ID : S_TEXT/UTF8
Codec ID/Info : UTF-8 Plain Text
Language : Russian
Default : Yes
Forced : No
Text #2
ID : 5
Format : UTF-8
Codec ID : S_TEXT/UTF8
Codec ID/Info : UTF-8 Plain Text
Language : English
Default : No
Forced : No



Скачать Босс.Boss.(Сезон.1.серии.01-08.из.8).(Марио.Ван.Пиблз.Джим.МакКей.Гас.Ван.Сент).[2011.Драма.BDRip].[720p].[DVO].(NewStudio.БЯКО.Рекордс).+.[Original].+.[rus.sub].torrent без регистрации
Золото ЗОЛОТАЯ РАЗДАЧА! СКАЧАННОЕ НЕ ЗАСЧИТЫВАЕТСЯ! Золото
Дата: Зарегистрирован   [ Тип: внутренний ] Как тут cкачать?
MAGNET ссылка
MAGNET ссылка


Скачать .torrent

99 KB

Статус: проверено DHT
Скачан: торрент - 138 раз, раздача полностью - 10 раз
Размер: 19,61 GB
Оценка:  - (Голосов: 0)
Поблагодарили: 1
Поделиться ссылкой на эту раздачу с друзьями:
В контактеFacebookОдноклассникиTwitterLivejournalМой МирLiveinternet
 

 
Показать сообщения:    


Вы не можете начинать темы
Вы не можете отвечать на сообщения
Вы не можете редактировать свои сообщения
Вы не можете удалять свои сообщения
Вы не можете голосовать в опросах
Вы не можете прикреплять файлы к сообщениям
Вы можете скачивать файлы