Loading...
Error

Скачать Симпатико / Simpatico (Мэттью Уоркус / Matthew Warchus) [1999, Драма, комедия, криминал, DVDRip] [AVO] (Юрий Сербин) торрент без регистрации

 
Статистика раздачи
Размер:  1,37 GB   |    Скачан:  122 раза
Сидов:  1  [  0 KB/s  ]  
 
Автор Сообщение

leon030982

[] 

Симпатико / Simpatico


Год выпуска: 1999
Страна: США, Франция, Великобритания
Жанр: Драма, комедия, криминал
Продолжительность: 01:42:06
Перевод: Авторский (одноголосый закадровый) Юрий Сербин
Cубтитры: нет

Режиссер: Мэттью Уоркус / Matthew Warchus

В ролях: Ник Нолти, Джефф Бриджес, Шэрон Стоун, Кэтрин Кинер, Альберт Финни, Шон Хэтаси, Кимберли Уильямс, Лайам Вейт, Уит Кроуфорд, Боб Хартер, Энгус Т. Джонс, Кен Штрунк, Мария Карретеро, Николь Скотт, Джозеф Хинди, Лойд Кэтлетт, Бриджитта Симона, Кристина Кэбот, Макк Драйден, Кристин Никербоксер, Роксана Бруссо, Малина Мой, Дэн Уиллогби, Кайзаад Котваль, Адхам Сейджер, Рэнди Колмиа, Тревор Денман, Алан

Описание: Что общего у мильтимиллионера Лайла Картера, владельца большого конезавода, его жены Рози и спившегося неудачника Винни Вебба? Эта троица на всю жизнь связана криминальным прошлым.Двадцать лет назад они задумали и провернули сложное мошенничество вокруг лошадиных скачек. Тогда им все удалось на славу: они заработали кучу денег. И вот теперь Винни решил покаяться в прошлых грехах.Узнав об этом, Картер по первому звонку бывшего друга бросает все и мчится к старому приятелю. Удастся ли ему остановить Вебба сохранить свою репутацию, богатство и жену Рози, а также выгодно продать своего лучшего жеребца Симпатико или же грехи двадцатилетней давности разрушат их кажущееся счастье и благополучие?..

Релиз
Автор рипа ЗайцевС
Сэмпл: http://multi-up.com/776790
Качество видео: DVDRip
Формат видео: AVI
Видео: XviD build 47, 720x400 (1.80:1), 25 fps, 1685 kbps avg
Аудио: AC3 Dolby Digital, 48 kHz, 2/0 (L,R) ch, 224.00 kbps avg
General
Complete name : D:\НА РУТРЕКЕР\Simpatico.1999.XviD.DVDRip.avi
Format : AVI
Format/Info : Audio Video Interleave
File size : 1.37 GiB
Duration : 1h 42mn
Overall bit rate : 1 920 Kbps
Writing application : VirtualDubMod 1.5.10.2 (build 2540/release)
Writing library : VirtualDubMod build 2540/release
Video
ID : 0
Format : MPEG-4 Visual
Format profile : AdvancedSimple@L5
Format settings, BVOP : Yes
Format settings, QPel : No
Format settings, GMC : No warppoints
Format settings, Matrix : Default (MPEG)
Codec ID : XVID
Codec ID/Hint : XviD
Duration : 1h 42mn
Bit rate : 1 686 Kbps
Width : 720 pixels
Height : 400 pixels
Display aspect ratio : 1.850
Frame rate : 25.000 fps
Resolution : 24 bits
Colorimetry : 4:2:0
Scan type : Progressive
Bits/(Pixel*Frame) : 0.234
Stream size : 1.20 GiB (88%)
Writing library : XviD 1.2.0.dev47 (UTC 2006-11-01)
Audio
ID : 1
Format : AC-3
Format/Info : Audio Coding 3
Format profile : Dolby Digital
Codec ID : 2000
Duration : 1h 42mn
Bit rate mode : Constant
Bit rate : 224 Kbps
Channel(s) : 2 channels
Channel positions : L R
Sampling rate : 48.0 KHz
Stream size : 164 MiB (12%)
Alignment : Split accross interleaves
Interleave, duration : 40 ms (1.00 video frame)
Interleave, preload duration : 500 ms



Скачать Симпатико.Simpatico.(Мэттью.Уоркус.Matthew.Warchus).[1999.Драма.комедия.криминал.DVDRip].[AVO].(Юрий.Сербин).torrent без регистрации
Золото ЗОЛОТАЯ РАЗДАЧА! СКАЧАННОЕ НЕ ЗАСЧИТЫВАЕТСЯ! Золото
Дата: Зарегистрирован   [ Тип: внутренний ] Как тут cкачать?
MAGNET ссылка
MAGNET ссылка


Скачать .torrent

14 KB

Статус: проверено DHT
Скачан: торрент - 122 раз, раздача полностью - 1 раз
Размер: 1,37 GB
Оценка:  - (Голосов: 0)
Поблагодарили: 0
Поделиться ссылкой на эту раздачу с друзьями:
В контактеFacebookОдноклассникиTwitterLivejournalМой МирLiveinternet
 

 
Показать сообщения:    


Вы не можете начинать темы
Вы не можете отвечать на сообщения
Вы не можете редактировать свои сообщения
Вы не можете удалять свои сообщения
Вы не можете голосовать в опросах
Вы не можете прикреплять файлы к сообщениям
Вы можете скачивать файлы