Loading...
Error

Скачать Тайные связи / Covert Affairs (Полный 1-ый сезон) (Тим Мэтисон) [2010, Драма, боевик, HDTV] [900p] [MVO] [FilmGate] торрент без регистрации

 
Статистика раздачи
Размер:  20,53 GB   |    Скачан:  137 раз
Сидов:  1  [  0 KB/s  ]  
 
Автор Сообщение

leon030982

[] 



Год выпуска: 2010
Страна: США
Жанр: Драма, боевик
Продолжительность:1-я 01:08:11, след. ~42 min
Перевод: любительский многоголосый закадровый (FilmGate)
Русские субтитры: нет

Режиссёр: Тим Мэтисон

В ролях: Пайпер Перабо, Кристофер Горам, Эрик Лайвли, Кэри Матчетт, Питер Галлахер, Энн Дудек, Эйон Бэйли

Описание: Главная героиня сериала - Энни Уокер, стажер ЦРУ. Энни свободно владеет шестью языками и добивается успеха в любом деле. Она обнаруживает, что ее боссы слишком заинтересованы в ее бывшем парне.

Качество: HDTV
Формат: MKV
Видео кодек: x264
Аудио кодек: AC3
Видео: 1600x900, x264, ~24 fps, ~5-7 Mbps, CRF 18
Аудио 1 (русская) AC3 2.0, 192 kbit/s, 48K
Аудио 2 (английская): Ac3 5.1, 384 kbit/s, 48K
General
Complete name : Covert Affairs S1E01 (Pilot)_x264_HDTV.900p.mkv
Format : Matroska
File size : 2.96 GiB
Duration : 1h 5mn
Overall bit rate : 6 506 Kbps
Encoded date : UTC 2010-09-12 17:54:24
Writing application : mkvmerge v4.0.0 ('The Stars were mine') built on Jun 6 2010 16:18:42
Writing library : libebml v1.0.0 + libmatroska v1.0.0
Video
ID : 1
Format : AVC
Format/Info : Advanced Video Codec
Format profile : High@L4.1
Format settings, CABAC : Yes
Format settings, ReFrames : 5 frames
Format settings, GOP : M=1, N=19
Muxing mode : Container profile=Unknown@4.1
Codec ID : V_MPEG4/ISO/AVC
Duration : 1h 5mn
Bit rate : 5 801 Kbps
Width : 1 600 pixels
Height : 900 pixels
Display aspect ratio : 16:9
Frame rate : 23.976 fps
Color space : YUV
Chroma subsampling : 4:2:0
Bit depth : 8 bits
Scan type : Progressive
Bits/(Pixel*Frame) : 0.168
Stream size : 2.64 GiB (89%)
Writing library : x264 core 98 r1643 59a9e03
Encoding settings : cabac=1 / ref=5 / deblock=1:-1:-1 / analyse=0x3:0x113 / me=umh / subme=7 / psy=1 / psy_rd=1.00:0.00 / mixed_ref=1 / me_range=16 / chroma_me=1 / trellis=0 / 8x8dct=1 / cqm=0 / deadzone=21,11 / fast_pskip=0 / chroma_qp_offset=-2 / threads=9 / sliced_threads=0 / nr=0 / decimate=1 / interlaced=0 / constrained_intra=0 / bframes=3 / b_pyramid=2 / b_adapt=1 / b_bias=0 / direct=3 / weightb=1 / weightp=2 / keyint=240 / keyint_min=24 / scenecut=40 / intra_refresh=0 / rc_lookahead=40 / rc=crf / mbtree=1 / crf=18.0 / qcomp=0.60 / qpmin=10 / qpmax=51 / qpstep=4 / vbv_maxrate=50000 / vbv_bufsize=50000 / crf_max=0.0 / ip_ratio=1.40 / aq=1:1.00 / nal_hrd=none
Audio #1
ID : 2
Format : AC-3
Format/Info : Audio Coding 3
Format profile : Dolby Digital
Mode extension : CM (complete main)
Codec ID : A_AC3
Duration : 1h 5mn
Bit rate mode : Constant
Bit rate : 192 Kbps
Channel(s) : 2 channels
Channel positions : Front: L R
Sampling rate : 48.0 KHz
Bit depth : 16 bits
Stream size : 89.5 MiB (3%)
Language : Russian
Audio #2
ID : 3
Format : AC-3
Format/Info : Audio Coding 3
Mode extension : CM (complete main)
Codec ID : A_AC3
Duration : 1h 5mn
Bit rate mode : Constant
Bit rate : 384 Kbps
Channel(s) : 6 channels
Channel positions : Front: L C R, Side: L R, LFE
Sampling rate : 48.0 KHz
Bit depth : 16 bits
Video delay : 32ms
Stream size : 179 MiB (6%)



Скачать Тайные.связи.Covert.Affairs.(Полный.1-ый.сезон).(Тим.Мэтисон).[2010.Драма.боевик.HDTV].[900p].[MVO].[FilmGate].torrent без регистрации
Золото ЗОЛОТАЯ РАЗДАЧА! СКАЧАННОЕ НЕ ЗАСЧИТЫВАЕТСЯ! Золото
Дата: Зарегистрирован   [ Тип: внутренний ] Как тут cкачать?
MAGNET ссылка
MAGNET ссылка


Скачать .torrent

104 KB

Статус: проверено DHT
Скачан: торрент - 137 раз, раздача полностью - 17 раз
Размер: 20,53 GB
Оценка:  - (Голосов: 0)
Поблагодарили: 1
Поделиться ссылкой на эту раздачу с друзьями:
В контактеFacebookОдноклассникиTwitterLivejournalМой МирLiveinternet
 

 
Показать сообщения:    


Вы не можете начинать темы
Вы не можете отвечать на сообщения
Вы не можете редактировать свои сообщения
Вы не можете удалять свои сообщения
Вы не можете голосовать в опросах
Вы не можете прикреплять файлы к сообщениям
Вы можете скачивать файлы