Loading...
Error

Скачать Революция / Revolution (Стив Бойум, Джон Фавро) (Сезон 1-2, Серии 1-42 из 42) [2012-2014, Фантастика , Драма , WEBDLRip-AVC 720р] [DD5.1] [MVO] [Rumedia+LostFilm] торрент без регистрации

 
Статистика раздачи
Размер:  43,76 GB   |    Скачан:  699 раз
Сидов:  1  [  0 KB/s  ]  
 
Автор Сообщение

Nikolai.Baranov

[] 





Революция / Revolution




Год выпуска: 2012-2014
Выпущено: : США , NBC
Жанр: Фантастика , Драма
Автор идеи: Eric Kripke
Продолжительность: 00:43:00
Сезон: 1-2
Серии: 1-42
Количество серий в сезоне: 42
Озвучка 1Сезон:Профессиональная многоголосая закадровая(Rumedia + pozakazu.tv)
Озвучка 2Сезон:[b]Профессиональная многоголосая закадровая(LostFilm)
Субтитры: Нет

Сайт сериала:



Режиссер: Стив Бойум, Джон Фавро

В ролях: Шэйн Каллахан, Билли Бёрк, Трэйси Спиридакос, Джанкарло Эспозито, Зак Орт, Дэвид Лайонс и др.

Вся наша жизнь зависит от электричества. Что же произойдет, если оно внезапно исчезнет? Однажды, словно по щелчку выключателя, весь мир был отброшен в темные века. Самолеты падали с небес, больницы лишались энергообеспечения, связь стала невозможной. Теперь, без всех современных технологий, кто же ответит, почему? Через 15 лет после бедствия, жизнь стала такой, какой она была до промышленной революции: семьи живут на глухих улочках, с заходом солнца зажигают фонари и свечи. Жизнь стала спокойнее и лучше. Но так ли это? За пределами небольших фермерских общин все еще таится опасность. Так жизнь молодой девушки резко меняется, когда местная полиция убивает ее отца, который каким-то неведомым для дочери образом имел связь с отключением. Это событие заставляет ее вместе с двумя спутниками отправиться в смелое путешествие, чтобы найти правду о прошлом в надежде изменить будущее.

Качество : WEB-DLRip-AVC 720p
Формат: MPEG-4
Видео кодек: H264
Видео: 3108-3106Кбит/сек,1280х720(16.9),в 25.000кадр/сек,AVC(Baseline@L3.1)(1Ref Frames)
Аудио кодек: AAC
Аудио Russian Dolby Digital 5.1:452-265Кбит/сек,44.1КГц,6каналов,AAC,(Version4)(LC)


Звуковая дорожка сделана путем наложения чистого голоса озвучивателей на центральный канал оригинальной дорожки. Качество идентично звуковой дорожке.



01. Pilot / Пилот
02. Chained Heat / Ярость на цепи
03. No Quarter / Никакой пощады
04. The Plague Dogs / Цепные псы
05. Soul Train / Шумный рейс
06. Sex and Drugs / Секс и наркотики
07. The Children's Crusade / Крестовый поход детей
08. Ties That Bind / Кровные узы
09. Kashmir / Кашмир
10. Nobody's Fault But Mine / Только моя вина
11. Удержать позицию / The Stand
12.Призраки / Ghosts
13.Старая песня о главном / The Song Remains the Same
14 Ночь, когда в Джорджии погасли огни / The Night the Lights Went Out in Georgia
15 Дом / Home
16 Лодка любви / The Love Boat
17 Самый длинный день / The Longest Day
18 Улика / Clue
19 Дети человеческие / Children of Men
20 Темная башня / The Dark Tower



01 Рождённые в США (Born in the U.S.A.)
02 И прольется кровь (There Will Be Blood)
03 История любви (Love Story)
04 Игры патриотов (Patriot Games)
05 Одно нарушение, один рейнджер (One Riot, One Ranger)
06 Мертвец идёт (Dead Man Walking)
07 Патриотический акт (The Patriot Act)
08 Приди и протруби в свой рог (Come Blow Your Horn)
09 Все говорят, что я люблю тебя (Everyone Says I Love You)
10 Три амигос (The Three Amigos)
11 Два моих отца (Mis Dos Padres)
12 Капитан Шустрик (Captain Trips)
13 Счастливый конец (Happy Endings)
14 Страх и ненависть (Fear and Loathing)
15 Ловец снов (Dreamcatcher)
16 Бульвар Экспозишен (Exposition Boulevard)
17 За что мы сражаемся (Why We Fight)
18 Дело было в Остине (Austin City Limits)
19 Фигня случается (S#!& Happens)
20 Страна будущего (Tomorrowland)
21 День поминовения (Memorial Day)
22 Декларация независимости (Declaration of Independence)



General
Полное имя : F:\Новая папка (3)\Революция\Revolution_2012_-_2013_S01_rus[Rumedia_+_Рozakazu.TV]_DD5.1_x264_Nikolai.Baranov_WEB-DLRip-AVC_(720p)\Revolution_2012_s01е01_rus[Rumedia_+_Рozakazu.TV]_DD5.1_x264_Nikolai.Baranov_WEB-DLRip-AVC_(720p).mp4
Формат : MPEG-4
Профиль формата : Base Media
Идентификатор кодека : isom
Размер файла : 1.08 GiB
Продолжительность : 43mn 21s
Режим общего битрейта : Variable
Общий поток : 3 564 Kbps
Дата кодирования : UTC 2012-10-08 22:28:01
Дата пометки : UTC 2012-10-08 22:28:01
Программа кодирования : Lavf51.12.1

Video
Идентификатор : 1
Формат : AVC
Формат/Информация : Advanced Video Codec
Профиль формата : Baseline@L3.1
Параметр CABAC формата : No
Параметр ReFrames формата : 1 frame
Параметр GOP формата : M=1, N=12
Идентификатор кодека : avc1
Идентификатор кодека/Информация : Advanced Video Coding
Продолжительность : 43mn 21s
Вид битрейта : Variable
Битрейт : 3 108 Kbps
Максимальный битрейт : 4 500 Kbps
Ширина : 1 280 pixels
Высота : 720 pixels
Соотношение сторон : 16:9
Режим частоты кадров : Constant
Частота кадров : 25.000 fps
Частота кадров в оригинале : 24.000 fps
Цветовое пространство : YUV
Субдискретизация насыщенности : 4:2:0
Битовая глубина : 8 bits
Тип развёртки : Progressive
Бит/(Пиксели*Кадры) : 0.135
Размер потока : 964 MiB (87%)
Дата кодирования : UTC 2012-10-08 22:28:01
Дата пометки : UTC 2012-10-08 22:28:01

Audio
Идентификатор : 2
Формат : AAC
Формат/Информация : Advanced Audio Codec
Профиль формата : LC
Идентификатор кодека : 40
Продолжительность : 43mn 21s
Вид битрейта : Variable
Битрейт : 452 Kbps
Каналы : 6 channels
Расположение каналов : Front: L C R, Side: L R, LFE
Частота : 44.1 KHz
Метод сжатия : Lossy
Размер потока : 140 MiB (13%)
Дата кодирования : UTC 2012-10-08 22:28:01
Дата пометки : UTC 2012-10-08 22:28:01



General
Полное имя : F:\Новая папка (3)\Революция\Revolution_2012_-_2013_S01_rus[Rumedia_+_Рozakazu.TV]_DD5.1_x264_Nikolai.Baranov_WEB-DLRip-AVC_(720p)\Revolution_2013_s02е01_rus[LostFilm.TV]_DD5.1_x264_Nikolai.Baranov_WEB-DLRip-AVC_(720p).mp4
Формат : MPEG-4
Профиль формата : Base Media
Идентификатор кодека : isom
Размер файла : 1.02 GiB
Продолжительность : 43mn 7s
Режим общего битрейта : Variable
Общий поток : 3 378 Kbps
Дата кодирования : UTC 2013-09-28 08:40:41
Дата пометки : UTC 2013-09-28 08:40:41
Программа кодирования : Lavf51.12.1

Video
Идентификатор : 1
Формат : AVC
Формат/Информация : Advanced Video Codec
Профиль формата : Baseline@L3.1
Параметр CABAC формата : No
Параметр ReFrames формата : 1 frame
Параметр GOP формата : M=1, N=12
Идентификатор кодека : avc1
Идентификатор кодека/Информация : Advanced Video Coding
Продолжительность : 43mn 7s
Вид битрейта : Variable
Битрейт : 3 106 Kbps
Максимальный битрейт : 4 500 Kbps
Ширина : 1 280 pixels
Высота : 720 pixels
Соотношение сторон : 16:9
Режим частоты кадров : Constant
Частота кадров : 25.000 fps
Частота кадров в оригинале : 24.000 fps
Цветовое пространство : YUV
Субдискретизация насыщенности : 4:2:0
Битовая глубина : 8 bits
Тип развёртки : Progressive
Бит/(Пиксели*Кадры) : 0.135
Размер потока : 958 MiB (92%)
Дата кодирования : UTC 2013-09-28 08:40:41
Дата пометки : UTC 2013-09-28 08:40:41

Audio
Идентификатор : 2
Формат : AAC
Формат/Информация : Advanced Audio Codec
Профиль формата : LC
Идентификатор кодека : 40
Продолжительность : 43mn 7s
Вид битрейта : Variable
Битрейт : 265 Kbps
Каналы : 6 channels
Расположение каналов : Front: L C R, Side: L R, LFE
Частота : 44.1 KHz
Метод сжатия : Lossy
Размер потока : 82.6 MiB (8%)
Дата кодирования : UTC 2013-09-28 08:40:41
Дата пометки : UTC 2013-09-28 08:40:41




1сезон

2сезон


1. Открыть торрент
2. Снять галки с тех файлов торрента, которые мы не хотим закачивать. Оставляем только на нужных нам файлах (файле).
3. Нажать О.К.

В клиенте utorrent

Инструкция

1) Открыть торрент


2) Снять галки с тех файлов торрента, которые мы не хотим закачивать:

* либо вручную, снимая с каждого файла галку( скрин №1)
* либо, нажав кнопку "Снять метки (Select None)", сняв сразу со всех файлов(скрин №2)
№1

№2

Оставляем только на нужных нам файлах (файле).

3)Нажать О.К




Внимание!!! 07. 06. 2014. РАЗДАЧА ОБНОВЛЕНА.ФИНАЛ СЕЗОНА.ОБНОВИТЕ ТОРЕНТ ФАЙЛ.ПРИЯТНОГО ПРОСМОТРА .

Релиз от: Nikolai.Baranov










Скачать Революция.Revolution.(Стив.Бойум.Джон.Фавро).(Сезон.1-2.Серии.1-42.из.42).[2012-2014.Фантастика.Драма.WEBDLRip-AVC.720р].[DD5.1].[MVO].[Rumedia+LostFilm].torrent без регистрации
Золото ЗОЛОТАЯ РАЗДАЧА! СКАЧАННОЕ НЕ ЗАСЧИТЫВАЕТСЯ! Золото
Дата: Зарегистрирован   [ Тип: внутренний ] Как тут cкачать?
MAGNET ссылка
MAGNET ссылка


Скачать .torrent

116 KB

Статус: проверено DHT
Скачан: торрент - 699 раз, раздача полностью - 1 раз
Размер: 43,76 GB
Оценка:  5 (Голосов: 2)
Поблагодарили: 19
Поделиться ссылкой на эту раздачу с друзьями:
В контактеFacebookОдноклассникиTwitterLivejournalМой МирLiveinternet
 

 

nunahren

[] 

Если на земле исчезнет электричество - мы сразу все помрём: у нас нервная система остановится.

ag ag ag ag ag ag

Но америкосы дебилы, им простительно.
 
Показать сообщения:    


Вы не можете начинать темы
Вы не можете отвечать на сообщения
Вы не можете редактировать свои сообщения
Вы не можете удалять свои сообщения
Вы не можете голосовать в опросах
Вы не можете прикреплять файлы к сообщениям
Вы можете скачивать файлы