Loading...
Error

/ Covert Affairs ( 3- ) ( ) [2012, , , WEB-DLRip] [MVO] (Fox Life)

 
7,81 GB   |    :  160
1  [  0 KB/s  ]  
 

leon030982

[] 

/ Covert Affairs
: 2012
:
: ,
: ~45 -
: (, ) (Fox Life)
:
:
: , , , , ,
: , . ( ) , . - , , . , - -, . ( ), , , , .


:
:
: Baggio
: Baggio
: WEB-DLRip
: AVI
: XviD
: MP3
: 720*400, 23.976 fps, XviD MPEG-4, ~1390 kbps, 0.2 bit/pixel
Rus: 48 kHz, MPEG Layer 3, 2 ch, ~128 kbps
Eng: 48 kHz, MPEG Layer 3, 2 ch, ~128 kbps

:

Format : AVI
Format/Info : Audio Video Interleave
File size : 500 MiB
Duration : 42mn 3s
Overall bit rate : 1 662 Kbps
Writing application : VirtualDubMod 1.5.10.2 (build 2540/release)
Writing library : VirtualDubMod build 2540/release
Video
ID : 0
Format : MPEG-4 Visual
Format profile : Advanced Simple@L5
Format settings, BVOP : 2
Format settings, QPel : No
Format settings, GMC : No warppoints
Format settings, Matrix : Default (MPEG)
Codec ID : XVID
Codec ID/Hint : XviD
Duration : 42mn 3s
Bit rate : 1 392 Kbps
Width : 720 pixels
Height : 400 pixels
Display aspect ratio : 16:9
Frame rate : 23.976 fps
Color space : YUV
Chroma subsampling : 4:2:0
Bit depth : 8 bits
Scan type : Progressive
Compression mode : Lossy
Bits/(Pixel*Frame) : 0.202
Stream size : 419 MiB (84%)
Writing library : XviD 64
Audio #1
ID : 1
Format : MPEG Audio
Format version : Version 1
Format profile : Layer 3
Mode : Joint stereo
Mode extension : MS Stereo
Codec ID : 55
Codec ID/Hint : MP3
Duration : 42mn 3s
Bit rate mode : Constant
Bit rate : 128 Kbps
Channel(s) : 2 channels
Sampling rate : 48.0 KHz
Compression mode : Lossy
Stream size : 38.5 MiB (8%)
Alignment : Aligned on interleaves
Interleave, duration : 42 ms (1.00 video frame)
Interleave, preload duration : 504 ms
Audio #2
ID : 2
Format : MPEG Audio
Format version : Version 1
Format profile : Layer 3
Mode : Joint stereo
Mode extension : MS Stereo
Codec ID : 55
Codec ID/Hint : MP3
Duration : 42mn 3s
Bit rate mode : Constant
Bit rate : 128 Kbps
Channel(s) : 2 channels
Sampling rate : 48.0 KHz
Compression mode : Lossy
Stream size : 38.5 MiB (8%)
Alignment : Aligned on interleaves
Interleave, duration : 42 ms (1.00 video frame)
Interleave, preload duration : 504 ms
[size=14]! ; . , : (1) , (2) ( ), (3) , .
() ( - ), . , !
E , , .



..Covert.Affairs.(.3-.).(.).[2012...WEB-DLRip].[MVO].(Fox.Life).torrent
  ! ! 
:   [ : ] c?
MAGNET
MAGNET


.torrent

21 KB

: DHT
: - 160 , - 35
: 7,81 GB
4,5 (: 2)
: 2
:
 FacebookTwitterLivejournal Liveinternet
 

 
: