Loading...
Error

/ Covert Affairs ( 3- ) ( ) [2012, , , WEB-DL] [720p] [MVO] (Fox Life)

 
22,34 GB   |    :  149
1  [  0 KB/s  ]  
 

leon030982

[] 

/ Covert Affairs
: 2012
:
: ,
: ~45 -
: (, ) (Fox Life)
:
:
: , , , , ,
: , . ( ) , . - , , . , - -, . ( ), , , , .


:
:
: Baggio
: Baggio
: WEB-DL 720p
: MKV
: AVC, 1280x720, 23.976 fps, ~4100 kbps, 0.19 b / p
Rus: 48 kHz, AC3, 2 ch, ~192 kbps
Eng: 48 kHz, AC3, 6 ch, ~384 kbps

:

Format : Matroska
Format version : Version 2
File size : 1.41 GiB
Duration : 42mn 3s
Overall bit rate : 4 798 Kbps
Encoded date : UTC 2012-09-13 18:09:13
Writing application : mkvmerge v2.9.9 ('Tutu') built on Nov 25 2009 21:13:32
Writing library : libebml v0.7.9 + libmatroska v0.8.1
Video
ID : 1
Format : AVC
Format/Info : Advanced Video Codec
Format profile : High@L3.1
Format settings, CABAC : No
Format settings, ReFrames : 2 frames
Codec ID : V_MPEG4/ISO/AVC
Duration : 42mn 3s
Bit rate : 4 127 Kbps
Width : 1 280 pixels
Height : 720 pixels
Display aspect ratio : 16:9
Frame rate : 23.976 fps
Color space : YUV
Chroma subsampling : 4:2:0
Bit depth : 8 bits
Scan type : Progressive
Bits/(Pixel*Frame) : 0.187
Stream size : 1.21 GiB (86%)
Language : English
Default : No
Forced : No
Color primaries : BT.709-5, BT.1361, IEC 61966-2-4, SMPTE RP177
Transfer characteristics : BT.709-5, BT.1361
Matrix coefficients : BT.709-5, BT.1361, IEC 61966-2-4 709, SMPTE RP177
Audio #1
ID : 2
Format : AC-3
Format/Info : Audio Coding 3
Mode extension : CM (complete main)
Codec ID : A_AC3
Duration : 42mn 3s
Bit rate mode : Constant
Bit rate : 192 Kbps
Channel(s) : 2 channels
Channel positions : Front: L R
Sampling rate : 48.0 KHz
Bit depth : 16 bits
Compression mode : Lossy
Stream size : 57.8 MiB (4%)
Default : Yes
Forced : Yes
Audio #2
ID : 3
Format : AC-3
Format/Info : Audio Coding 3
Mode extension : CM (complete main)
Codec ID : A_AC3
Duration : 42mn 3s
Bit rate mode : Constant
Bit rate : 384 Kbps
Channel(s) : 6 channels
Channel positions : Front: L C R, Side: L R, LFE
Sampling rate : 48.0 KHz
Bit depth : 16 bits
Compression mode : Lossy
Stream size : 116 MiB (8%)
Language : English
Default : No
Forced : No
[size=14]! ; . , : (1) , (2) ( ), (3) , .
() ( - ), . , !
E , , .



..Covert.Affairs.(.3-.).(.).[2012...WEB-DL].[720p].[MVO].(Fox.Life).torrent
  ! ! 
:   [ : ] c?
MAGNET
MAGNET


.torrent

114 KB

: DHT
: - 149 , - 4
: 22,34 GB
5 (: 1)
: 2
:
 FacebookTwitterLivejournal Liveinternet
 

 
: