Loading...
Error

Скачать Анатомия страсти / Grey's Anatomy (Полный 9-ый сезон) (Шонда Раймс) [2012, драма, WEB-DL] [720p] [MVO] (FOX Life) торрент без регистрации

 
Статистика раздачи
Размер:  33,74 GB   |    Скачан:  489 раз
Сидов:  1  [  0 KB/s  ]  
 
Автор Сообщение

leon030982

[] 

Анатомия Грей (Анатомия страсти) / Grey’s Anatomy (Полный 9-ый сезон)

Год выпуска: 2012
Страна: США
Жанр: драма
Продолжительность: ~42 мин
Перевод: профессиональный многоголосый закадровый / FOX Life

Режиссёр: Шонда Раймс

В ролях: Эллен Помпео (Мередит Грей), Сандра О (Кристина Янг), Джастин Чэмберс (Алекс Карев), Патрик Дэмпси (Дерек Шепард), Чандра Уилсон (Миранда Бейли), Сара Рамирез (Келли Торрес), Эрик Дэйн (Марк Слоан), Джеймс Пикенс мл. (Ричард Вебер), Кайлер Ли (Лекси Грей), Кевин МакКид (Оуэн Хант), Джессика Кэпшоу (Аризона Роббинс), Ким Рэйвер (Тэдди Альтман), Джесси Уильямс (Джексон Эйвери), Сара Дрю (Эйприл Кэпнер).

При участии: Скотт Фоули (Генри Бартон), Лоретта Дивайн (Адель Вебер), Джейсон Уинстон Джордж (Бен Уорен), Дилан Бруно (Грифитц Льюис).

Описание: Продолжение знаменитой медицинской драмы о работе и личных отношениях хирургов сиэтлской больницы. Каждый день наполнен болью и счастьем, ссорами и примирениями, сложными дилеммами и необходимостью принять моментальное решение от которого зависит жизнь человека. В центре сюжета хирург - Мередит и её коллеги, такие же начинающие врачи, как она. Хирурги оперируют и влюбляются, заводят истории болезни и служебные романы, хранят свои врачебные тайны, борются с осложнениями у пациентов и в собственной личной жизни.
В Анатомии Грей великолепный сюжет, замечательный саундтрек, хороший юмор и интересные высказывания в начале и конце серий.


Качество: WEB-DL 720p
Формат: MKV
Видео кодек: H.264
Аудио кодек: AC3
Видео: 1280х720 (16:9), 23.976 fps, ~4200 kbps, ~0.190 bit/pixel
Аудио 1: Русский, AC3, 2.0, 48 kHz, 192 kbps
Аудио 2: Английский, AC3, 5.1, 48 kHz, 384 kbps
IMDB: 7,2/10
- Американский телеканал ABC в середине сезона вдруг остался без сериала на воскресный вечер. Телебоссы ринулись к завалявшимся с лета сценариям. Ничего не найдя, они поставили в программу сериал, по их мнению, обреченный на провал. В итоге эта «ошибка» принесла каналу самые большие рейтинги за всю историю американского ТВ.
- Одна из серий с гостевым персонажем «Анатомии Грэй» Дэнни Дюке (в исполнении Джеффри Дина Моргана), собрала у экранов 39 млн. зрителей, побив рекорд финала чемпионата США по бейсболу, что до «Анатомии Грэй» не удавалось еще ни одному сериалу.
- Название Grey’s Anatomy было задумано как игра слов из названия известного учебника Генри Грея «Анатомия Грея» (англ. Gray's Anatomy) и фамилии главной героини Мередит Грей.
- Каждая серия «Анатомии страсти» называется в честь песен известных исполнителей
- Актриса Сандра О изначально пробовалась на роль доктора Бейли, а Исайя Вашингтон и Патрик Демпси пробовались на героев друг друга.
- Раймс изначально представляла Бейли как эффектную блондинку, однако когда на пробы пришла Уилсон, она изменила своё представление о персонаже.
- Сара Рамирез является певицей и лауреатом театральной премии «Тони» за работу в мюзикле.
- По мотивам сериала в 2009 году была выпущена видеоигра "Grey’s Anatomy: The Video Game".
Общее
Формат : Matroska
Версия формата : Version 2
Размер файла : 1,41 Гбайт
Продолжительность : 43 м.
Общий поток : 4671 Кбит/сек
Дата кодирования : UTC 2012-09-28 09:23:19
Программа кодирования : mkvmerge v5.8.0 ('No Sleep / Pillow') built on Sep 2 2012 15:37:04
Библиотека кодирования : libebml v1.2.3 + libmatroska v1.3.0
Видео
Идентификатор : 1
Формат : AVC
Формат/Информация : Advanced Video Codec
Профиль формата : High@L3.1
Параметр CABAC формата : Нет
Параметр ReFrames формата : 2 кадра
Идентификатор кодека : V_MPEG4/ISO/AVC
Продолжительность : 43 м.
Битрейт : 4195 Кбит/сек
Ширина : 1280 пикселей
Высота : 720 пикселей
Соотношение сторон : 16:9
Режим частоты кадров : Постоянный
Частота кадров : 23,976 кадра/сек
Цветовое пространство : YUV
Субдискретизация насыщенности : 4:2:0
Битовая глубина : 8 бит
Тип развёртки : Прогрессивная
Бит/(Пиксели*Кадры) : 0.190
Размер потока : 1,26 Гбайт (90%)
Default : Да
Forced : Нет
Основные цвета : BT.709
Характеристики трансфера : BT.709
Коэффициенты матрицы : BT.709
Аудио #1
Идентификатор : 2
Формат : AC-3
Формат/Информация : Audio Coding 3
Расширение режима : CM (complete main)
Идентификатор кодека : A_AC3
Продолжительность : 43 м.
Вид битрейта : Постоянный
Битрейт : 192 Кбит/сек
Каналы : 2 канала
Расположение каналов : Front: L R
Частота : 48,0 КГц
Битовая глубина : 16 бит
Размер потока : 59,3 Мбайт (4%)
Заголовок : RUS
Язык : Russian
Аудио #2
Идентификатор : 3
Формат : AC-3
Формат/Информация : Audio Coding 3
Расширение режима : CM (complete main)
Идентификатор кодека : A_AC3
Продолжительность : 43 м.
Вид битрейта : Постоянный
Битрейт : 384 Кбит/сек
Каналы : 6 каналов
Расположение каналов : Front: L C R, Side: L R, LFE
Частота : 48,0 КГц
Битовая глубина : 16 бит
Размер потока : 119 Мбайт (8%)
Заголовок : ENG
Язык : English
30.07.13 Добавлена финальные серии!!!



Скачать Анатомия.страсти.Grey's.Anatomy.(Полный.9-ый.сезон).(Шонда.Раймс).[2012.драма.WEB-DL].[720p].[MVO].(FOX.Life).torrent без регистрации
Золото ЗОЛОТАЯ РАЗДАЧА! СКАЧАННОЕ НЕ ЗАСЧИТЫВАЕТСЯ! Золото
Дата: Зарегистрирован   [ Тип: внутренний ] Как тут cкачать?
MAGNET ссылка
MAGNET ссылка


Скачать .torrent

171 KB

Статус: проверено DHT
Скачан: торрент - 489 раз, раздача полностью - 35 раз
Размер: 33,74 GB
Оценка:  5 (Голосов: 1)
Поблагодарили: 4
Поделиться ссылкой на эту раздачу с друзьями:
В контактеFacebookОдноклассникиTwitterLivejournalМой МирLiveinternet
 

 

leon030982

[] 

01.03.13 Добавлена 12-я серия!!!
 

leon030982

[] 

18.04.13 Добавлена 13-15-я серии!!! az
 

leon030982

[] 

обновлено az
 

leon030982

[] 

18-я серия az
 

leon030982

[] 

обновлено az
 

leon030982

[] 

Добавлена финальные серии az
 
Показать сообщения:    


Вы не можете начинать темы
Вы не можете отвечать на сообщения
Вы не можете редактировать свои сообщения
Вы не можете удалять свои сообщения
Вы не можете голосовать в опросах
Вы не можете прикреплять файлы к сообщениям
Вы можете скачивать файлы