Loading...
Error

Скачать Не убивайте меня, пожалуйста! (Оксана Сенникова) [2005 г., Драма, DVDRip] торрент без регистрации

 
Статистика раздачи
Размер:  1,59 GB   |    Скачан:  131 раз

Полного источника не было: 31 минута

 
Автор Сообщение

deniska1975

[] 

Не убивайте меня, пожалуйста!

Название: Не убивайте меня, пожалуйста!
Год выпуска: 2005
Жанр: Драма
Продолжительность: 02:13:45

Режиссер: Оксана Сенникова

В ролях: Светлана Павлова, Александр Бакшаев, Оксана Овчинникова, Андрей Ефимов, Наталья Раба, Павел Раба, Маргарита Лошкова, Сергей Захарченко, Агрита Васильева, Руслан Васильев, Анжела Греченкова, Светлана Подобина, Сергей Подобин, Юрий Ладошкин, Татьяна Ефимова, Анатолий Целиков, Елена Панкратова, Ольга Свионтковская, Светлана Журуева, Татьяна Матюнина, Нина Павлова, Тимофей Сенников

Описание: Убить человека - что это? Многие замашут руками и начнут проклинать терроризм. Но практически никто даже словом не обмолвится о миллионах детей, которых убивают самыми изощрёнными методами, только потому, что они лишние, нежеланные, нелюбимые, случайные. И убивают их собственные матери и отцы, которые должны любить и защищать.
Убить человека, что это? Это прийти в медицинское учреждение, где за стенкой счастливые матери рожают своих долгожданных детей, и разрешить убийце в белом халате разрывать твоего ребенка на кусочки или сжигать его кислотой, а потом спокойно идти и кушать больничный обед.
Так всё таки, что же это - убить человека?
Фильм снят с участием глухих актёров. Фильм тронет самое каменное сердце и сохранит жизнь тысячам детей, которых хотят убить их мамы..... .


Качество: DVDRip
Формат: AVI
Видео кодек: DivX
Видео: 720x544 (1.32:1), 25 fps, DivX Codec 5.2.1 build 1338 ~1341 kbps avg, 0.14 bit/pixel
Аудио: 44.100 kHz, Microsoft ADPCM, 2 ch, ~354.87 kbps avg
[pre]Общее
Полное имя : D:/Фильмы/Ne.ubivajte.menya.pozhalujsta.2005.DivX.DVDRip.avi
Формат : AVI
Формат/Информация : Audio Video Interleave
Размер файла : 1,59 Гбайт
Продолжительность : 2 ч. 13 м.
Общий поток : 1706 Кбит/сек
Библиотека кодирования : VirtualDub build 13720/release

Видео
Идентификатор : 0
Формат : MPEG-4 Visual
Параметр BVOP формата : Нет
Параметр QPel формата : Нет
Параметр GMC формата : Без точки перехода
Параметр матрицы формата : Default (H.263)
Идентификатор кодека : DX50
Идентификатор кодека/Подсказка : DivX 5
Продолжительность : 2 ч. 13 м.
Битрейт : 1342 Кбит/сек
Ширина : 720 пикселей
Высота : 544 пикселя
Соотношение сторон : 4:3
Частота кадров : 25,000 кадров/сек
Цветовое пространство : YUV
Субдискретизация насыщенности : 4:2:0
Битовая глубина : 8 бит
Тип развёртки : Прогрессивная
Метод сжатия : С потерями
Бит/(Пиксели*Кадры) : 0.137
Размер потока : 1,25 Гбайт (79%)
Библиотека кодирования : DivX 5.2.1 (DrDivX 106) (UTC 2004-09-08)

Аудио
Идентификатор : 1
Формат : ADPCM
Идентификатор кодека : 2
Продолжительность : 2 ч. 13 м.
Продолжительность оригинала : 2 ч. 13 м.
Вид битрейта : Постоянный
Битрейт : 352,8 Кбит/сек
Каналы : 2 канала
Частота : 44,1 КГц
Битовая глубина : 4 бит
Размер потока : 340 Мбайт (21%)
Продолжительность промежутка : 46 мс. (1,15 видеокадр)
Время предзагрузки промежутка : 461 мс.[/pre]



Скачать Не.убивайте.меня.пожалуйста!.(Оксана.Сенникова).[2005.г.Драма.DVDRip].torrent без регистрации
Золото ЗОЛОТАЯ РАЗДАЧА! СКАЧАННОЕ НЕ ЗАСЧИТЫВАЕТСЯ! Золото
Дата: Зарегистрирован   [ Тип: внутренний ] Как тут cкачать?
MAGNET ссылка
MAGNET ссылка


Скачать .torrent

33 KB

Статус: проверено DHT
Скачан: торрент - 131 раз, раздача полностью - 6 раз
Размер: 1,59 GB
Оценка:  5 (Голосов: 1)
Поблагодарили: 2
Поделиться ссылкой на эту раздачу с друзьями:
В контактеFacebookОдноклассникиTwitterLivejournalМой МирLiveinternet
 

 
Показать сообщения:    


Вы не можете начинать темы
Вы не можете отвечать на сообщения
Вы не можете редактировать свои сообщения
Вы не можете удалять свои сообщения
Вы не можете голосовать в опросах
Вы не можете прикреплять файлы к сообщениям
Вы можете скачивать файлы