Loading...
Error

Скачать Студенческая команда / Varsity Blues (Брайн Роббинс) [1999, комедия, драма, спорт, HDRip] [DVO] торрент без регистрации

 
Статистика раздачи
Размер:  1,37 GB   |    Скачан:  123 раза
Сидов:  1  [  0 KB/s  ]  
 
Автор Сообщение

Marsianka

[] 


Студенческая команда / Varsity Blues

Год выхода: 1999
Жанр: комедия, драма, спорт
Режиссер: Брайн Роббинс / Brian Robbins
В ролях: Джеймс Ван Дер Бик, Эми Смарт, Джон Войт, Пол Уокер, Скотт Каан, Али Лартер, Рон Лестер, Ричард Лайнбэк, Томас Даффи, Тони Перенски

О фильме: Вот уже 35 лет опытный тренер Бад Килмер (Войт) тренирует студенческую команду под названием «Койоты» из маленького городка в штате Техас. Килмер - требователен и суров, от своих подопечных он непреклонно требует победы, чего бы она ни стоила. Когда в разгар футбольного сезона ведущий игрок «Койотов» получает тяжелую травму, Бад решает поставить на его место паренька по имени Джонатан Моксон (Ван Дер Бик). Моксона меньше всего привлекает перспектива стать звездой футбола: ему гораздо более по душе спокойное место на скамейке запасных, подальше от назойливого тренера. Теперь, оказавшись на месте ключевого игрока «Койотов», Моксон должен доказать себе и другим, чего он стоит в действительности. Судьба играет человеком как хочет, но человек способен ее обыграть, а иногда и стать героем...




Рейтинг R - Детям до 17 лет обязательно присутствие родителей

Выпущено: США
Продолжительность: 01:44:41
Перевод:
Профессиональный (двухголосый, закадровый)

Кодек: XviD - Совместимо с бытовыми DVD-плеерами
Качество: HDRip (Исходник - BDRip 1080p. Спасибо Stosha_Govnozad )
Видео: 720x408 (16:9), 23.976 fps, XviD build 65 ~1671 kbps avg, 0.24 bit/pixel
Аудио: 48 kHz, AC3 Dolby Digital, 2/0 (L,R) ch, ~192 kbps

Общее
Полное имя: Studencheskay.komanda.1999.XviD.HDRip.DVO_SergV.avi
Формат : AVI
Формат/Информация : Audio Video Interleave
Размер файла : 1,37 Гбайт
Продолжительность : 1 ч. 44 м.
Общий поток : 1873 Кбит/сек
Название фильма : Studencheskay.komanda.1999.XviD.HDRip.DVO_SergV
Программа кодирования : VirtualDubMod 1.5.10.3 | www.virtualdub-fr.org || (build 2550/release)
Примечание : Рип от SergV

Видео
Идентификатор : 0
Формат : MPEG-4 Visual
Профиль формата : Advanced Simple@L5
Параметр BVOP формата : 2
Параметр QPel формата : Нет
Параметр GMC формата : Без точки перехода
Параметр матрицы формата : Default (MPEG)
Идентификатор кодека : XVID
Идентификатор кодека/Подсказка : XviD
Продолжительность : 1 ч. 44 м.
Битрейт : 1672 Кбит/сек
Ширина : 720 пикселей
Высота : 408 пикселей
Соотношение сторон : 16:9
Частота кадров : 23,976 кадра/сек
Цветовое пространство : YUV
Субдискретизация насыщенности : 4:2:0
Битовая глубина : 8 бит
Тип развёртки : Прогрессивная
Метод сжатия : С потерями
Бит/(Пиксели*Кадры) : 0.237
Размер потока : 1,22 Гбайт (89%)
Библиотека кодирования : XviD 65

Аудио
Идентификатор : 1
Формат : AC-3
Формат/Информация : Audio Coding 3
Расширение режима : CM (complete main)
Параметр Endianness формата : Big
Идентификатор кодека : 2000
Продолжительность : 1 ч. 44 м.
Вид битрейта : Постоянный
Битрейт : 192 Кбит/сек
Каналы : 2 канала
Расположение каналов : Front: L R
Частота : 48,0 КГц
Битовая глубина : 16 бит
Метод сжатия : С потерями
Размер потока : 144 Мбайт (10%)
Выравнивание : Разделение по промежуткам
Продолжительность промежутка : 42 мс. (1,00 видеокадр)
Время предзагрузки промежутка : 500 мс.
Релиз от:



Скачать Студенческая.команда.Varsity.Blues.(Брайн.Роббинс).[1999.комедия.драма.спорт.HDRip].[DVO].torrent без регистрации
Золото ЗОЛОТАЯ РАЗДАЧА! СКАЧАННОЕ НЕ ЗАСЧИТЫВАЕТСЯ! Золото
Дата: Зарегистрирован   [ Тип: внутренний ] Как тут cкачать?
MAGNET ссылка
MAGNET ссылка


Скачать .torrent

14 KB

Статус: проверено DHT
Скачан: торрент - 123 раз, раздача полностью - 47 раз
Размер: 1,37 GB
Оценка:  - (Голосов: 0)
Поблагодарили: 0
Поделиться ссылкой на эту раздачу с друзьями:
В контактеFacebookОдноклассникиTwitterLivejournalМой МирLiveinternet
 

 
Показать сообщения:    


Вы не можете начинать темы
Вы не можете отвечать на сообщения
Вы не можете редактировать свои сообщения
Вы не можете удалять свои сообщения
Вы не можете голосовать в опросах
Вы не можете прикреплять файлы к сообщениям
Вы можете скачивать файлы