Loading...
Error

Скачать Железные кулаки / Кастет / Fists of Iron (Ричард У. Манчкин) [1995, боевик, приключения, DVDRip][AVO] торрент без регистрации

 
Статистика раздачи
Размер:  1,37 GB   |    Скачан:  171 раз
Сидов:  1  [  0 KB/s  ]  
 
Автор Сообщение

Marsianka

[] 


Железные кулаки / Кастет / Fists of Iron

Год выхода: 1995
Жанр: Боевик, приключения
Режиссер: Ричард У. Манчкин /Richard W. Munchkin
В ролях: Майкл Уорт, Дженили Хэррисон, Маршалл Тиг, Мэттайэс Хьюз, Эрик Ли, Ник Хилл, Сэм Джоунс

О фильме: Молодой парень (Уорт), работающий автослесарем, неплохо умеющий драться и держать удар, приходит со своим другом посмотреть на кулачные бои, ведущиеся без правил. А вернее, в них одно правило - победить надо любой ценой. В конце поединка на арену пригласили желающих продержаться одну минуту против чемпиона. Друг вышел на бой, продержался минуту, но ночью умер. Тогда слесарь решил отомстить за смерть друга.




Рейтинг R - Детям до 17 лет обязательно присутствие родителей

Выпущено: США
Продолжительность: 01:30:44
Перевод:
Авторский (одноголосый, закадровый) - Вартан Дохалов

Кодек: XviD - Совместимо с бытовыми DVD-плеерами
Качество: DVDRip (Исходник - DVD 5. Спасибо loxaba)
Видео: 720x552 (1.30:1), 23.976 fps, XviD build 65 ~1959 kbps avg, 0.20 bit/pixel
Аудио: 48 kHz, AC3 Dolby Digital, 2/0 (L,R) ch, ~192 kbps

Общее
Полное имя:Geleznie.kylaki.1995.XviD.DVDRip.AVO_SergV.avi
Формат : AVI
Формат/Информация : Audio Video Interleave
Размер файла : 1,37 Гбайт
Продолжительность : 1 ч. 30 м.
Общий поток : 2161 Кбит/сек
Название фильма : Geleznie.kylaki.1995.XviD.DVDRip.AVO_SergV
Программа кодирования : VirtualDubMod 1.5.10.3 | www.virtualdub-fr.org || (build 2550/release)
Примечание : Рип от SergV

Видео
Идентификатор : 0
Формат : MPEG-4 Visual
Профиль формата : Advanced Simple@L5
Параметр BVOP формата : 2
Параметр QPel формата : Нет
Параметр GMC формата : Без точки перехода
Параметр матрицы формата : Default (MPEG)
Идентификатор кодека : XVID
Идентификатор кодека/Подсказка : XviD
Продолжительность : 1 ч. 30 м.
Битрейт : 1960 Кбит/сек
Ширина : 720 пикселей
Высота : 552 пикселя
Соотношение сторон : 4:3
Частота кадров : 23,976 кадра/сек
Цветовое пространство : YUV
Субдискретизация насыщенности : 4:2:0
Битовая глубина : 8 бит
Тип развёртки : Прогрессивная
Метод сжатия : С потерями
Бит/(Пиксели*Кадры) : 0.206
Размер потока : 1,24 Гбайт (91%)
Библиотека кодирования : XviD 65

Аудио
Идентификатор : 1
Формат : AC-3
Формат/Информация : Audio Coding 3
Расширение режима : CM (complete main)
Параметр Endianness формата : Big
Идентификатор кодека : 2000
Продолжительность : 1 ч. 30 м.
Вид битрейта : Постоянный
Битрейт : 192 Кбит/сек
Каналы : 2 канала
Расположение каналов : Front: L R
Частота : 48,0 КГц
Битовая глубина : 16 бит
Метод сжатия : С потерями
Размер потока : 125 Мбайт (9%)
Выравнивание : Разделение по промежуткам
Продолжительность промежутка : 42 мс. (1,00 видеокадр)
Время предзагрузки промежутка : 500 мс.
Релиз от:



Скачать Железные.кулаки.Кастет.Fists.of.Iron.(Ричард.У.Манчкин).[1995.боевик.приключения.DVDRip][AVO].torrent без регистрации
Золото ЗОЛОТАЯ РАЗДАЧА! СКАЧАННОЕ НЕ ЗАСЧИТЫВАЕТСЯ! Золото
Дата: Зарегистрирован   [ Тип: внутренний ] Как тут cкачать?
MAGNET ссылка
MAGNET ссылка


Скачать .torrent

14 KB

Статус: проверено DHT
Скачан: торрент - 171 раз, раздача полностью - 48 раз
Размер: 1,37 GB
Оценка:  - (Голосов: 0)
Поблагодарили: 0
Поделиться ссылкой на эту раздачу с друзьями:
В контактеFacebookОдноклассникиTwitterLivejournalМой МирLiveinternet
 

 
Показать сообщения:    


Вы не можете начинать темы
Вы не можете отвечать на сообщения
Вы не можете редактировать свои сообщения
Вы не можете удалять свои сообщения
Вы не можете голосовать в опросах
Вы не можете прикреплять файлы к сообщениям
Вы можете скачивать файлы