Loading...
Error

Скачать «V» значит Вендетта / V for Vendetta (Джеймс МакТиг) [2005, фантастика, боевик, триллер, драма, BDRip] [1080p] [Dub] торрент без регистрации

 
Статистика раздачи
Размер:  5,76 GB   |    Скачан:  124 раза
Сидов:  1  [  0 KB/s  ]  
 
Автор Сообщение

МихаНЕзатор

[] 

Информация о фильме
Название: «V» значит Вендетта
Оригинальное название: V for Vendetta
Год выхода: 2005
Жанр: фантастика, боевик, триллер, драма
Режиссер: Джеймс МакТиг

В ролях: Натали Портман, Хьюго Уивинг, Стивен Ри, Стивен Фрай, Джон Хёрт, Тим Пиготт-Смит, Руперт Грейвз, Роджер Аллам, Бен Майлз, Шинед Кьюсак

О фильме: Альтернативное будущее. В Англии, после страшной эпидемии неизвестного вируса, повергшей страну в хаос, устанавливается жестокая диктатура властного канцлера со всеми сопутствующими прелестями: комендантский час, всевластие членов партии над простыми людьми и, конечно, сотни тайных стукачей-осведомителей. Однажды ночью в Лондоне появляется борец за свободу, известный как V, который начинает партизанскую войну с режимом в попытке вернуть народу отнятую у него свободу. В этой войне он привлекает на свою сторону молодую женщину, которую он вырвал из лап тайной полиции.

Выпущено: Warner Bros. Pictures
Продолжительность: 02:12:32
Перевод: Дублированный

Файл
Кодек: x264
Качество: BDRip (источник: Blu-ray Disc)
Видео: 1920x800 (2,40:1), 23.976 fps, 5137 kbps
Аудио #1: AC-3, 6 ch, 640 kbps (Rus)
Аудио #2: AC-3, 6 ch, 448 kbps (Eng)
Субтитры: Русские, Английские

Общее
Уникальный идентификатор : 202600193541096850835942960492681650699 (0x986B60C1324E7445AED9120785F0620B)
Полное имя : V.for.Vendetta.2005.BDRip.1080p.Rus.Eng.mkv
Формат : Matroska
Версия формата : Version 2
Размер файла : 5,76 Гбайт
Продолжительность : 2 ч. 12 м.
Общий поток : 6221 Кбит/сек
Название фильма : «V» значит Вендетта / V for Vendetta (2005)
Дата кодирования : UTC 2012-10-23 01:11:11
Программа кодирования : mkvmerge v5.8.0 ('No Sleep / Pillow') built on Sep 2 2012 15:37:04
Библиотека кодирования : libebml v1.2.3 + libmatroska v1.3.0

Видео
Идентификатор : 1
Формат : AVC
Формат/Информация : Advanced Video Codec
Профиль формата : High@L4.1
Параметр CABAC формата : Да
Параметр ReFrames формата : 5 кадров
Идентификатор кодека : V_MPEG4/ISO/AVC
Продолжительность : 2 ч. 12 м.
Битрейт : 5137 Кбит/сек
Ширина : 1920 пикселей
Высота : 800 пикселей
Соотношение сторон : 2,40:1
Частота кадров : 23,976 кадра/сек
Цветовое пространство : YUV
Субдискретизация насыщенности : 4:2:0
Битовая глубина : 8 бит
Тип развёртки : Прогрессивная
Бит/(Пиксели*Кадры) : 0.139
Размер потока : 4,64 Гбайт (81%)
Заголовок : Release by AlexKa
Библиотека кодирования : x264 core 128 r2216 198a7ea
Настройки программы : cabac=1 / ref=5 / deblock=1:-3:-3 / analyse=0x3:0x133 / me=umh / subme=10 / psy=1 / psy_rd=1.00:0.10 / mixed_ref=1 / me_range=32 / chroma_me=1 / trellis=2 / 8x8dct=1 / cqm=0 / deadzone=21,11 / fast_pskip=0 / chroma_qp_offset=-3 / threads=12 / lookahead_threads=2 / sliced_threads=0 / nr=0 / decimate=0 / interlaced=0 / bluray_compat=0 / constrained_intra=0 / bframes=5 / b_pyramid=2 / b_adapt=2 / b_bias=0 / direct=3 / weightb=1 / open_gop=0 / weightp=2 / keyint=240 / keyint_min=23 / scenecut=40 / intra_refresh=0 / rc=2pass / mbtree=0 / bitrate=5137 / ratetol=1.0 / qcomp=0.60 / qpmin=0 / qpmax=69 / qpstep=4 / cplxblur=20.0 / qblur=0.5 / ip_ratio=1.40 / pb_ratio=1.30 / aq=1:0.80
Язык : English

Аудио #1
Идентификатор : 2
Формат : AC-3
Формат/Информация : Audio Coding 3
Расширение режима : CM (complete main)
Идентификатор кодека : A_AC3
Продолжительность : 2 ч. 12 м.
Вид битрейта : Постоянный
Битрейт : 640 Кбит/сек
Каналы : 6 каналов
Расположение каналов : Front: L C R, Side: L R, LFE
Частота : 48,0 КГц
Битовая глубина : 16 бит
Метод сжатия : С потерями
Размер потока : 607 Мбайт (10%)
Заголовок : Rus
Язык : Russian

Аудио #2
Идентификатор : 3
Формат : AC-3
Формат/Информация : Audio Coding 3
Расширение режима : CM (complete main)
Идентификатор кодека : A_AC3
Продолжительность : 2 ч. 12 м.
Вид битрейта : Постоянный
Битрейт : 448 Кбит/сек
Каналы : 6 каналов
Расположение каналов : Front: L C R, Side: L R, LFE
Частота : 48,0 КГц
Битовая глубина : 16 бит
Метод сжатия : С потерями
Размер потока : 425 Мбайт (7%)
Заголовок : Eng
Язык : English

Текст #1
Идентификатор : 4
Формат : UTF-8
Идентификатор кодека : S_TEXT/UTF8
Идентификатор кодека/Информация : UTF-8 Plain Text
Заголовок : Rus
Язык : Russian

Текст #2
Идентификатор : 5
Формат : UTF-8
Идентификатор кодека : S_TEXT/UTF8
Идентификатор кодека/Информация : UTF-8 Plain Text
Заголовок : Eng
Язык : English

Меню
00:00:00.000 : :Chapter 01
00:02:24.310 : :Chapter 02
00:09:07.880 : :Chapter 03
00:11:00.409 : :Chapter 04
00:16:26.985 : :Chapter 05
00:21:56.648 : :Chapter 06
00:25:01.500 : :Chapter 07
00:30:09.808 : :Chapter 08
00:35:37.468 : :Chapter 09
00:40:37.435 : :Chapter 10
00:43:14.258 : :Chapter 11
00:48:02.713 : :Chapter 12
00:49:40.978 : :Chapter 13
00:54:11.081 : :Chapter 14
00:56:39.562 : :Chapter 15
01:00:31.294 : :Chapter 16
01:04:47.049 : :Chapter 17
01:09:41.177 : :Chapter 18
01:12:07.489 : :Chapter 19
01:18:49.725 : :Chapter 20
01:21:13.034 : :Chapter 21
01:26:01.656 : :Chapter 22
01:29:20.688 : :Chapter 23
01:32:08.356 : :Chapter 24
01:36:21.275 : :Chapter 25
01:39:28.462 : :Chapter 26
01:44:17.584 : :Chapter 27
01:48:50.357 : :Chapter 28
01:52:03.717 : :Chapter 29
01:53:57.664 : :Chapter 30
01:57:51.564 : :Chapter 31
01:59:35.334 : :Chapter 32
02:04:38.471 : :Chapter 33
02:12:32.235 : :Chapter 34
x264 [info]: frame I:1794 Avg QP:16.04 size:137707
x264 [info]: frame P:41489 Avg QP:18.78 size: 51518
x264 [info]: frame B:147383 Avg QP:20.69 size: 18430



Скачать «V».значит.Вендетта.V.for.Vendetta.(Джеймс.МакТиг).[2005.фантастика.боевик.триллер.драма.BDRip].[1080p].[Dub].torrent без регистрации
Золото ЗОЛОТАЯ РАЗДАЧА! СКАЧАННОЕ НЕ ЗАСЧИТЫВАЕТСЯ! Золото
Дата: Зарегистрирован   [ Тип: внутренний ] Как тут cкачать?
MAGNET ссылка
MAGNET ссылка


Скачать .torrent

29 KB

Статус: проверено DHT
Скачан: торрент - 124 раз, раздача полностью - 232 раз
Размер: 5,76 GB
Оценка:  - (Голосов: 0)
Поблагодарили: 2
Поделиться ссылкой на эту раздачу с друзьями:
В контактеFacebookОдноклассникиTwitterLivejournalМой МирLiveinternet
 

 
Показать сообщения:    


Вы не можете начинать темы
Вы не можете отвечать на сообщения
Вы не можете редактировать свои сообщения
Вы не можете удалять свои сообщения
Вы не можете голосовать в опросах
Вы не можете прикреплять файлы к сообщениям
Вы можете скачивать файлы