Loading...
Error

Скачать Живописная авантюра (Валерий Ахадов) [2007, детектив, DVDRip] торрент без регистрации

 
Статистика раздачи
Размер:  745 MB   |    Скачан:  107 раз
Сидов:  1  [  0 KB/s  ]  
 
Автор Сообщение

МихаНЕзатор

[] 

Страна: Россия
Жанр: детектив
Год выпуска: 2007
Продолжительность: 01:43:55

Перевод: Не требуется
Cубтитры: нет
Оригинальная аудиодорожка: русский

Режиссеры: Валерий Ахадов

В ролях: Александр Домогаров, Мария Голубкина, Лариса Голубкина, Игорь Воробьев, Игорь Гордин, Александр Комиссаров...

Описание: Максим Ильин, эксперт в области живописи, консультант модных журналов, одиночка и мизантроп, соглашается позировать юной художнице. Они договариваются о встрече, но в назначенный день девушка не приходит. Зато вскоре Максим встречает ее в казино в обществе своего старого приятеля, известного банкира. Бедная художница выглядит как светская львица.
Банкир приходит вместе с ней к Максиму в гости, теперь она в образе манерной ценительницы искусства. На следующий день выясняется, что дом банкира ограблен. Ильина вызывают в прокуратуру, где в форме следователя его встречает все та же таинственная незнакомка. Максим понимает, что это далеко не последнее ее превращение


Исходник: DVD9 R5
Тип релиза: DVDRip
Контейнер: AVI

Видео: 640x352 (16:9), 25 fps, XviD ~ 865 kbps avg, 0.154 bit/pixel
Аудио: 48 kHz, MP3, 2 ch, 128.00 kbps

Общее
Полное имя : Zhivopisnaja.avantjura.2007.DVDRip_[Youtracker]_by_AVP Studio.avi
Формат : AVI
Формат/Информация : Audio Video Interleave
Размер файла : 745 Мбайт
Продолжительность : 1 ч. 43 м.
Общий поток : 1003 Кбит/сек
Программа кодирования : VirtualDubMod 1.5.10.3 | www.virtualdub-fr.org || (build 2550/release)
Библиотека кодирования : VirtualDubMod build 2550/release

Видео
Идентификатор : 0
Формат : MPEG-4 Visual
Профиль формата : Advanced Simple@L5
Параметр BVOP формата : 1
Параметр QPel формата : Нет
Параметр GMC формата : Без точки перехода
Параметр матрицы формата : Выборочная
Идентификатор кодека : XVID
Идентификатор кодека/Подсказка : XviD
Продолжительность : 1 ч. 43 м.
Битрейт : 865 Кбит/сек
Ширина : 640 пикселей
Высота : 352 пикселя
Соотношение сторон : 16:9
Частота кадров : 25,000 кадров/сек
Цветовое пространство : YUV
Субдискретизация насыщенности : 4:2:0
Битовая глубина : 8 бит
Тип развёртки : Прогрессивная
Метод сжатия : С потерями
Бит/(Пиксели*Кадры) : 0.154
Размер потока : 643 Мбайт (86%)
Библиотека кодирования : XviD 65

Аудио
Идентификатор : 1
Формат : MPEG Audio
Версия формата : Version 1
Профиль формата : Layer 3
Идентификатор кодека : 55
Идентификатор кодека/Подсказка : MP3
Продолжительность : 1 ч. 43 м.
Вид битрейта : Постоянный
Битрейт : 128 Кбит/сек
Каналы : 2 канала
Частота : 48,0 КГц
Метод сжатия : С потерями
Размер потока : 95,1 Мбайт (13%)
Выравнивание : Соединение по промежуткам
Продолжительность промежутка : 40 мс. (1,00 видеокадр)
Время предзагрузки промежутка : 504 мс.
Библиотека кодирования : L3.99r
Настройки программы : -m s -V 4 -q 2 -lowpass 17 -b 128



Скачать Живописная.авантюра.(Валерий.Ахадов).[2007.детектив.DVDRip].torrent без регистрации
Золото ЗОЛОТАЯ РАЗДАЧА! СКАЧАННОЕ НЕ ЗАСЧИТЫВАЕТСЯ! Золото
Дата: Зарегистрирован   [ Тип: внутренний ] Как тут cкачать?
MAGNET ссылка
MAGNET ссылка


Скачать .torrent

15 KB

Статус: проверено DHT
Скачан: торрент - 107 раз, раздача полностью - 14 раз
Размер: 745 MB
Оценка:  - (Голосов: 0)
Поблагодарили: 0
Поделиться ссылкой на эту раздачу с друзьями:
В контактеFacebookОдноклассникиTwitterLivejournalМой МирLiveinternet
 

 
Показать сообщения:    


Вы не можете начинать темы
Вы не можете отвечать на сообщения
Вы не можете редактировать свои сообщения
Вы не можете удалять свои сообщения
Вы не можете голосовать в опросах
Вы не можете прикреплять файлы к сообщениям
Вы можете скачивать файлы