Loading...
Error

Скачать Черный динамит / Black Dynamite (Скотт Сандерс) [2009, боевик, комедия, HDRip-AVC] [DVO]+[VO (Наумов)] торрент без регистрации

 
Статистика раздачи
Размер:  1,81 GB   |    Скачан:  126 раз
Сидов:  1  [  0 KB/s  ]  
 
Автор Сообщение

МихаНЕзатор

[] 

Информация о фильме
Название: Черный динамит
Оригинальное название: Black Dynamite
Год выхода: 2009
Жанр: боевик, комедия
Режиссер: Скотт Сандерс

В ролях: Майкл Джей Уайт, Кевин Чэпмен, Шон Картер, Томми Дэвидсон, Ричард Эдсон, Джейсон Эдвардс, Джон Кент Этридж, Кори Глюк, Арсенио Холл

О фильме:
В районах черного гетто свирепствует итальянская мафия: сиротский приют садится на героин, на улицах распространяется контрабандная бражка под видом крутого ликера. Секретный агент ЦРУ по прозвищу Черный Динамит берет дело в свои руки, поводом для чего становится убийство его брата.

Страна: США
Продолжительность: 01:24:14
Перевод: Любительский двухголосый, любительский одноголосый (Наумов)
Субтитры: Английские
Дата релиза: 24.10.2012

Файл
Кодек: H.264
Качество: HDRip-AVC
Видео: MPEG-4 AVC, 2000 Кбит/с, 1024x552
Звук: Русский (AC3, 2 ch, 192 Кбит/с) (AC3, 6 ch, 448 Кбит/с), английский (AC3, 6 ch, 448 Кбит/с)

Общее
Уникальный идентификатор : 223381281977031345327902052845005093157 (0xA80DAB84F511639F891AB7968084B925)
Полное имя : G:фильмыChernyj.dinamit.2009.x264.HDRip.(AVC).ExKinoRay.mkv
Формат : Matroska
Версия формата : Version 2
Размер файла : 1,81 Гбайт
Продолжительность : 1 ч. 24 м.
Общий поток : 3079 Кбит/сек
Название фильма : Chernyj.dinamit.2009.x264.HDRip.(AVC).ExKinoRay
Дата кодирования : UTC 2012-10-24 14:50:07
Программа кодирования : mkvmerge v4.0.0 ('The Stars were mine') сборка от Jun 6 2010 16:18:42
Библиотека кодирования : libebml v1.0.0 + libmatroska v1.0.0

Видео
Идентификатор : 1
Формат : AVC
Формат/Информация : Advanced Video Codec
Профиль формата : High@L4.1
Параметр CABAC формата : Да
Параметр ReFrames формата : 8 кадров
Идентификатор кодека : V_MPEG4/ISO/AVC
Продолжительность : 1 ч. 24 м.
Битрейт : 2000 Кбит/сек
Ширина : 1024 пикселя
Высота : 552 пикселя
Соотношение сторон : 1,855
Частота кадров : 23,976 кадра/сек
Цветовое пространство : YUV
Субдискретизация насыщенности : 4:2:0
Битовая глубина : 8 бит
Тип развёртки : Прогрессивная
Бит/(Пиксели*Кадры) : 0.148
Размер потока : 1,14 Гбайт (63%)
Заголовок : Rip by Enigma-Vladislav71
Библиотека кодирования : x264 core 92 r1510 33d382a
Настройки программы : cabac=1 / ref=8 / deblock=1:-2:-2 / analyse=0x3:0x133 / me=umh / subme=10 / psy=1 / psy_rd=1.00:0.00 / mixed_ref=1 / me_range=48 / chroma_me=1 / trellis=2 / 8x8dct=1 / cqm=0 / deadzone=21,11 / fast_pskip=0 / chroma_qp_offset=-2 / threads=3 / sliced_threads=0 / nr=0 / decimate=1 / interlaced=0 / constrained_intra=0 / bframes=8 / b_pyramid=2 / b_adapt=2 / b_bias=0 / direct=3 / wpredb=1 / wpredp=2 / keyint=240 / keyint_min=23 / scenecut=40 / intra_refresh=0 / rc=2pass / mbtree=0 / bitrate=2000 / ratetol=1.0 / qcomp=0.60 / qpmin=10 / qpmax=51 / qpstep=4 / cplxblur=20.0 / qblur=0.5 / ip_ratio=1.40 / pb_ratio=1.30 / aq=1:1.00
Язык : English
Default : Да
Forced : Нет

Аудио #1
Идентификатор : 2
Формат : AC-3
Формат/Информация : Audio Coding 3
Расширение режима : CM (complete main)
Идентификатор кодека : A_AC3
Продолжительность : 1 ч. 24 м.
Вид битрейта : Постоянный
Битрейт : 192 Кбит/сек
Каналы : 2 канала
Расположение каналов : Front: L R
Частота : 48,0 КГц
Битовая глубина : 16 бит
Метод сжатия : С потерями
Размер потока : 116 Мбайт (6%)
Заголовок : Любительский двухголосый
Язык : Russian
Default : Да
Forced : Нет

Аудио #2
Идентификатор : 3
Формат : AC-3
Формат/Информация : Audio Coding 3
Расширение режима : CM (complete main)
Идентификатор кодека : A_AC3
Продолжительность : 1 ч. 24 м.
Вид битрейта : Постоянный
Битрейт : 448 Кбит/сек
Каналы : 6 каналов
Расположение каналов : Front: L C R, Side: L R, LFE
Частота : 48,0 КГц
Битовая глубина : 16 бит
Метод сжатия : С потерями
Размер потока : 270 Мбайт (15%)
Заголовок : Любительский одноголосый (Наумов)
Язык : Russian
Default : Нет
Forced : Нет

Аудио #3
Идентификатор : 4
Формат : AC-3
Формат/Информация : Audio Coding 3
Расширение режима : CM (complete main)
Идентификатор кодека : A_AC3
Продолжительность : 1 ч. 24 м.
Вид битрейта : Постоянный
Битрейт : 448 Кбит/сек
Каналы : 6 каналов
Расположение каналов : Front: L C R, Side: L R, LFE
Частота : 48,0 КГц
Битовая глубина : 16 бит
Метод сжатия : С потерями
Размер потока : 270 Мбайт (15%)
Заголовок : английский
Язык : English
Default : Нет
Forced : Нет

Текст
Идентификатор : 5
Формат : UTF-8
Идентификатор кодека : S_TEXT/UTF8
Идентификатор кодека/Информация : UTF-8 Plain Text
Язык : English
Default : Да
Forced : Нет

Меню
00:00:00.000 : en:Chapter 1
00:04:40.738 : en:Chapter 2
00:10:00.933 : en:Chapter 3
00:15:10.784 : en:Chapter 4
00:19:34.173 : en:Chapter 5
00:25:28.818 : en:Chapter 6
00:31:23.298 : en:Chapter 7
00:35:39.428 : en:Chapter 8
00:40:23.045 : en:Chapter 9
00:44:16.570 : en:Chapter 10
00:48:16.393 : en:Chapter 11
00:54:03.406 : en:Chapter 12
01:01:43.282 : en:Chapter 13
01:06:14.720 : en:Chapter 14
01:10:13.542 : en:Chapter 15
01:15:06.919 : en:Chapter 16


Релиз от:
Авторы релиза:



Скачать Черный.динамит.Black.Dynamite.(Скотт.Сандерс).[2009.боевик.комедия.HDRip-AVC].[DVO]+[VO.(Наумов)].torrent без регистрации
Золото ЗОЛОТАЯ РАЗДАЧА! СКАЧАННОЕ НЕ ЗАСЧИТЫВАЕТСЯ! Золото
Дата: Зарегистрирован   [ Тип: внутренний ] Как тут cкачать?
MAGNET ссылка
MAGNET ссылка


Скачать .torrent

19 KB

Статус: проверено DHT
Скачан: торрент - 126 раз, раздача полностью - 44 раз
Размер: 1,81 GB
Оценка:  5 (Голосов: 1)
Поблагодарили: 1
Поделиться ссылкой на эту раздачу с друзьями:
В контактеFacebookОдноклассникиTwitterLivejournalМой МирLiveinternet
 

 
Показать сообщения:    


Вы не можете начинать темы
Вы не можете отвечать на сообщения
Вы не можете редактировать свои сообщения
Вы не можете удалять свои сообщения
Вы не можете голосовать в опросах
Вы не можете прикреплять файлы к сообщениям
Вы можете скачивать файлы