Loading...
Error

Скачать Беги, сyка, беги! / Run! Bitch Run! (Джозеф Гузман) [2009, триллер, криминал, BDRip-AVC] [VO] торрент без регистрации

 
Статистика раздачи
Размер:  1,44 GB   |    Скачан:  121 раз
Сидов:  1  [  0 KB/s  ]  
 
Автор Сообщение

МихаНЕзатор

[] 

Информация о фильме
Название: Беги, сyка, беги!
Оригинальное название: Run! Bitch Run!
Год выхода: 2009
Жанр: триллер, криминал
Режиссер: Джозеф Гузман

В ролях: Кристина ДеРоса, Черил Лойн, Питер Тахое, Ждони Винчер, Ивет Корвеа, Майк Турси, Ченоа Мэйсон, Крим Кабахуг, Кайар Кох, Джессика Элдер

О фильме:
Эротический триллер о насилии и мести в лучших традициях хоррор эротик 70-х годов. А всё происходит где-то в глубинке Америки, где жизнь показана такая убогая, зачуханная, полная противоположность голливудским красотам. И вот там есть свой мирок одной андерграунд семейки, которые не весть чем занимаются, сидят на коксе, иногда могут кого-то грохнуть ни за просто так.Однажды в их дом постучали две сестренки-христианки, которые приехали в их поселок продавать библии. Не вовремя постучались. Здесь и начинается для них реальный кошмар. Ну представьте, вполне благопристойные девицы и попадают в такую клоаку. Одна из сестренок чудом выжила, за одну ночь повзрослела и стала другим человеком

Страна: США
Продолжительность: 01:22:29
Перевод: Любительский одноголосый
Дата релиза: 24.10.2012

Файл
Кодек: H.264
Качество: BDRip-AVC
Видео: MPEG-4 AVC, 2300 Кбит/с, 1024x576
Звук: AC3, 2 ch, 192 Кбит/с

Общее
Уникальный идентификатор : 182032589169729639111795750798949637481 (0x88F23391278E9823AD631F68DBDC5D69)
Полное имя : G:фильмыBegi.syka.begi.2009.x264.BDRip.(AVC).ExKinoRay.mkv
Формат : Matroska
Версия формата : Version 2
Размер файла : 1,44 Гбайт
Продолжительность : 1 ч. 22 м.
Общий поток : 2492 Кбит/сек
Название фильма : Begi.syka.begi.2009.x264.BDRip.(AVC).ExKinoRay
Дата кодирования : UTC 2012-10-24 15:53:12
Программа кодирования : mkvmerge v4.0.0 ('The Stars were mine') сборка от Jun 6 2010 16:18:42
Библиотека кодирования : libebml v1.0.0 + libmatroska v1.0.0

Видео
Идентификатор : 1
Формат : AVC
Формат/Информация : Advanced Video Codec
Профиль формата : High@L4.1
Параметр CABAC формата : Да
Параметр ReFrames формата : 8 кадров
Идентификатор кодека : V_MPEG4/ISO/AVC
Продолжительность : 1 ч. 22 м.
Битрейт : 2300 Кбит/сек
Ширина : 1024 пикселя
Высота : 576 пикселей
Соотношение сторон : 16:9
Частота кадров : 25,000 кадров/сек
Цветовое пространство : YUV
Субдискретизация насыщенности : 4:2:0
Битовая глубина : 8 бит
Тип развёртки : Прогрессивная
Бит/(Пиксели*Кадры) : 0.156
Размер потока : 1,30 Гбайт (90%)
Заголовок : Rip by Enigma-Vladislav71
Библиотека кодирования : x264 core 116 r2074 2641b9e
Настройки программы : cabac=1 / ref=8 / deblock=1:-2:-2 / analyse=0x3:0x133 / me=umh / subme=11 / psy=1 / psy_rd=1.00:0.00 / mixed_ref=1 / me_range=48 / chroma_me=1 / trellis=2 / 8x8dct=1 / cqm=0 / deadzone=21,11 / fast_pskip=0 / chroma_qp_offset=-2 / threads=3 / sliced_threads=0 / nr=0 / decimate=1 / interlaced=0 / bluray_compat=0 / constrained_intra=0 / bframes=8 / b_pyramid=2 / b_adapt=2 / b_bias=0 / direct=3 / weightb=1 / open_gop=0 / weightp=2 / keyint=250 / keyint_min=25 / scenecut=40 / intra_refresh=0 / rc=2pass / mbtree=0 / bitrate=2300 / ratetol=1.0 / qcomp=0.60 / qpmin=10 / qpmax=51 / qpstep=4 / cplxblur=20.0 / qblur=0.5 / ip_ratio=1.40 / pb_ratio=1.30 / aq=2:1.00
Язык : English
Default : Нет
Forced : Нет

Аудио
Идентификатор : 2
Формат : AC-3
Формат/Информация : Audio Coding 3
Расширение режима : CM (complete main)
Идентификатор кодека : A_AC3
Продолжительность : 1 ч. 22 м.
Вид битрейта : Постоянный
Битрейт : 192 Кбит/сек
Каналы : 2 канала
Расположение каналов : Front: L R
Частота : 48,0 КГц
Битовая глубина : 16 бит
Метод сжатия : С потерями
Размер потока : 113 Мбайт (8%)
Язык : Russian
Default : Нет
Forced : Нет


Релиз от:
Авторы релиза:



Скачать Беги.сyка.беги!.Run!.Bitch.Run!.(Джозеф.Гузман).[2009.триллер.криминал.BDRip-AVC].[VO].torrent без регистрации
Золото ЗОЛОТАЯ РАЗДАЧА! СКАЧАННОЕ НЕ ЗАСЧИТЫВАЕТСЯ! Золото
Дата: Зарегистрирован   [ Тип: внутренний ] Как тут cкачать?
MAGNET ссылка
MAGNET ссылка


Скачать .torrent

15 KB

Статус: проверено DHT
Скачан: торрент - 121 раз, раздача полностью - 27 раз
Размер: 1,44 GB
Оценка:  5 (Голосов: 1)
Поблагодарили: 3
Поделиться ссылкой на эту раздачу с друзьями:
В контактеFacebookОдноклассникиTwitterLivejournalМой МирLiveinternet
 

 
Показать сообщения:    


Вы не можете начинать темы
Вы не можете отвечать на сообщения
Вы не можете редактировать свои сообщения
Вы не можете удалять свои сообщения
Вы не можете голосовать в опросах
Вы не можете прикреплять файлы к сообщениям
Вы можете скачивать файлы