Loading...
Error

Скачать Тайна клуба Цунами / Tsunami Beach Club (Энтони Фанхаузер) [2008, триллер, детектив, DVDRip] [MVO] торрент без регистрации

 
Статистика раздачи
Размер:  738 MB   |    Скачан:  108 раз
Сидов:  1  [  0 KB/s  ]  
 
Автор Сообщение

Marsianka

[] 

Год выпуска: 2008
Страна: США
Студия: Redshell Entertainment

Перевод: Профессиональный (многоголосый закадровый)
Субтитры: нет
Оригинальная аудиодорожка: нет

Жанр: триллер, детектив
Продолжительность: 01:28:30

Режиссер: Энтони Фанхаузер / Anthony Fankhauser

В ролях: Роберт МакЭти, Кери Сандерс, Херман Синицин, Teresa Berkin, Chad Burlin, Серджо Кандидо, Никки Кристи, Лиза Фрэнкс, Jacob Golbe, Eddie Jesse Hegel...

Описание: Серия загадочных убийств потрясла Лос-Анджелес, но полиция бессильна перед лицом изощренного преступника. Страховой агент, клиентами чьей компании были некоторые убитые, проводит собственное расследование. Жертв объединяет только одно - все они за день до смерти получили приглашение в элитный клуб. Но попытавшись найти это заведение, агент понимает, что клуба "Цунами" просто не существует...

Исходник: DVD5 R5
Качество: DVDRip
Формат: AVI

Видео: 656x368 (16:9), 25.000 fps, XviD MPEG-4 ~1029 kbps avg, 0.170 bit/pixel
Аудио: Russian, МР3, 2/0 ch, 128 kbps, Delay 0 mSec
Раздача от:

Общее
Полное имя : Tayna.kluba.Tsunami.2008.P.DVDRip.745MB_[Youtracker]_by_avproh.avi
Формат : AVI
Формат/Информация : Audio Video Interleave
Размер файла : 738 Мбайт
Продолжительность : 1 ч. 28 м.
Общий поток : 1166 Кбит/сек
Программа кодирования : VirtualDubMod 1.5.10.3 | www.virtualdub-fr.org || (build 2550/release)
Библиотека кодирования : VirtualDubMod build 2550/release

Видео
Идентификатор : 0
Формат : MPEG-4 Visual
Профиль формата : Advanced Simple@L5
Параметр BVOP формата : 1
Параметр QPel формата : Нет
Параметр GMC формата : Без точки перехода
Параметр матрицы формата : Выборочная
Идентификатор кодека : XVID
Идентификатор кодека/Подсказка : XviD
Продолжительность : 1 ч. 28 м.
Битрейт : 1029 Кбит/сек
Ширина : 656 пикселей
Высота : 368 пикселей
Соотношение сторон : 16:9
Частота кадров : 25,000 кадров/сек
Цветовое пространство : YUV
Субдискретизация насыщенности : 4:2:0
Битовая глубина : 8 бит
Тип развёртки : Прогрессивная
Метод сжатия : С потерями
Бит/(Пиксели*Кадры) : 0.170
Размер потока : 651 Мбайт (88%)
Библиотека кодирования : XviD 65

Аудио
Идентификатор : 1
Формат : MPEG Audio
Версия формата : Version 1
Профиль формата : Layer 3
Идентификатор кодека : 55
Идентификатор кодека/Подсказка : MP3
Продолжительность : 1 ч. 28 м.
Вид битрейта : Постоянный
Битрейт : 128 Кбит/сек
Каналы : 2 канала
Частота : 48,0 КГц
Метод сжатия : С потерями
Размер потока : 81,0 Мбайт (11%)
Выравнивание : Соединение по промежуткам
Продолжительность промежутка : 40 мс. (1,00 видеокадр)
Время предзагрузки промежутка : 504 мс.



Скачать Тайна.клуба.Цунами.Tsunami.Beach.Club.(Энтони.Фанхаузер).[2008.триллер.детектив.DVDRip].[MVO].torrent без регистрации
Золото ЗОЛОТАЯ РАЗДАЧА! СКАЧАННОЕ НЕ ЗАСЧИТЫВАЕТСЯ! Золото
Дата: Зарегистрирован   [ Тип: внутренний ] Как тут cкачать?
MAGNET ссылка
MAGNET ссылка


Скачать .torrent

15 KB

Статус: проверено DHT
Скачан: торрент - 108 раз, раздача полностью - 36 раз
Размер: 738 MB
Оценка:  - (Голосов: 0)
Поблагодарили: 3
Поделиться ссылкой на эту раздачу с друзьями:
В контактеFacebookОдноклассникиTwitterLivejournalМой МирLiveinternet
 

 
Показать сообщения:    


Вы не можете начинать темы
Вы не можете отвечать на сообщения
Вы не можете редактировать свои сообщения
Вы не можете удалять свои сообщения
Вы не можете голосовать в опросах
Вы не можете прикреплять файлы к сообщениям
Вы можете скачивать файлы