Loading...
Error

Скачать Джейн Остин / Becoming Jane (Джулиан Джаррольд) [2007, драма, мелодрама, биография, BDRip-AVC] [Dub] торрент без регистрации

 
Статистика раздачи
Размер:  1,45 GB   |    Скачан:  155 раз
Сидов:  1  [  0 KB/s  ]  
 
Автор Сообщение

Marsianka

[] 

Джейн Остин / Becoming Jane (2007) BDRip-AVC

Информация о фильме
Название: Джейн Остин
Оригинальное название: Becoming Jane
Год выхода: 2007
Жанр: драма, мелодрама, биография
Режиссер: Джулиан Джаррольд
В ролях: Энн Хэтэуэй, Джеймс МакЭвой, Джули Уолтерс, Джеймс Кромуэлл, Мэгги Смит, Анна Максвелл Мартин, Люси Коху, Лоуренс Фокс, Иэн Ричардсон, Джо Андерсон ...

О фильме:
Джейн Остин верит в любовь, а ее родители хотят, чтобы она вышла замуж по расчету: в Англии 1795 года у молодой женщины не было иного выбора. Однако, когда двадцатилетняя Джейн познакомилась с обаятельным молодым ирландцем Томом Лефроем, его ум и дерзость разожгли ее любопытство, и весь мир полетел кувырком. Сможет ли Джейн отвергнуть ухаживания племянника леди Гришем, пойти наперекор воле родителей и бросить вызов общественным устоям?



Страна: Великобритания, Ирландия
Продолжительность: 02:00:59
Перевод: Дублированный

Файл
Кодек: h.264
Качество: BDRip-AVC
Видео: 1024x436 (2.35.1), 23.976 fps, 1330 kbps, 0.124 bit/pixel
Звук: 48 kHz, AC3 5.1, 384.00 kbps (Дубляж)

Общее
Уникальный идентификатор : 249990130760484319496550080556338957748 (0xBC12590D918CE7D39EF88B445D8ECDB4)
Полное имя : D:Becoming Jane.2007.BDRip-AVC.mkv
Формат : Matroska
Версия формата : Version 2
Размер файла : 1,45 Гбайт
Продолжительность : 2 ч. 0 м.
Общий поток : 1716 Кбит/сек
Название фильма : Джейн Остин / Becoming Jane (2007) BDRip-AVC rip by Rulya74
Дата кодирования : UTC 2012-10-24 16:19:27
Программа кодирования : mkvmerge v5.7.0 ('The Whirlwind') built on Jul 8 2012 20:08:51
Библиотека кодирования : libebml v1.2.3 + libmatroska v1.3.0

Видео
Идентификатор : 1
Формат : AVC
Формат/Информация : Advanced Video Codec
Профиль формата : High@L4.1
Параметр CABAC формата : Да
Параметр ReFrames формата : 12 кадров
Идентификатор кодека : V_MPEG4/ISO/AVC
Продолжительность : 2 ч. 0 м.
Битрейт : 1330 Кбит/сек
Ширина : 1024 пикселя
Высота : 436 пикселей
Соотношение сторон : 2,35:1
Частота кадров : 23,976 кадра/сек
Цветовое пространство : YUV
Субдискретизация насыщенности : 4:2:0
Битовая глубина : 8 бит
Тип развёртки : Прогрессивная
Бит/(Пиксели*Кадры) : 0.124
Размер потока : 1,10 Гбайт (76%)
Заголовок : Дублированный
Библиотека кодирования : x264 core 128 r2216 198a7ea
Настройки программы : cabac=1 / ref=12 / deblock=1:-2:-1 / analyse=0x3:0x113 / me=umh / subme=10 / psy=1 / psy_rd=1.09:0.08 / mixed_ref=1 / me_range=40 / chroma_me=1 / trellis=2 / 8x8dct=1 / cqm=0 / deadzone=21,11 / fast_pskip=0 / chroma_qp_offset=-3 / threads=8 / lookahead_threads=1 / sliced_threads=0 / nr=0 / decimate=1 / interlaced=0 / bluray_compat=0 / constrained_intra=0 / bframes=11 / b_pyramid=2 / b_adapt=2 / b_bias=0 / direct=3 / weightb=1 / open_gop=0 / weightp=2 / keyint=240 / keyint_min=22 / scenecut=40 / intra_refresh=0 / rc_lookahead=40 / rc=2pass / mbtree=1 / bitrate=1330 / ratetol=1.0 / qcomp=0.60 / qpmin=0 / qpmax=69 / qpstep=4 / cplxblur=20.0 / qblur=0.5 / ip_ratio=1.40 / aq=2:1.00
Язык : Russian
Default : Да
Forced : Нет

Аудио
Идентификатор : 2
Формат : AC-3
Формат/Информация : Audio Coding 3
Расширение режима : CM (complete main)
Идентификатор кодека : A_AC3
Продолжительность : 2 ч. 0 м.
Вид битрейта : Постоянный
Битрейт : 384 Кбит/сек
Каналы : 6 каналов
Расположение каналов : Front: L C R, Side: L R, LFE
Частота : 48,0 КГц
Битовая глубина : 16 бит
Метод сжатия : С потерями
Размер потока : 332 Мбайт (22%)
Default : Да
Forced : Нет



Скачать Джейн.Остин.Becoming.Jane.(Джулиан.Джаррольд).[2007.драма.мелодрама.биография.BDRip-AVC].[Dub].torrent без регистрации
Золото ЗОЛОТАЯ РАЗДАЧА! СКАЧАННОЕ НЕ ЗАСЧИТЫВАЕТСЯ! Золото
Дата: Зарегистрирован   [ Тип: внутренний ] Как тут cкачать?
MAGNET ссылка
MAGNET ссылка


Скачать .torrent

15 KB

Статус: проверено DHT
Скачан: торрент - 155 раз, раздача полностью - 45 раз
Размер: 1,45 GB
Оценка:  - (Голосов: 0)
Поблагодарили: 0
Поделиться ссылкой на эту раздачу с друзьями:
В контактеFacebookОдноклассникиTwitterLivejournalМой МирLiveinternet
 

 
Показать сообщения:    


Вы не можете начинать темы
Вы не можете отвечать на сообщения
Вы не можете редактировать свои сообщения
Вы не можете удалять свои сообщения
Вы не можете голосовать в опросах
Вы не можете прикреплять файлы к сообщениям
Вы можете скачивать файлы