Loading...
Error

Скачать При исполнении.Полицейские убийцы / Да, мадам! / Police Assassins / Yes, Madam! (Кори Юэнь) [1985, боевик, боевые искусства, комедия, DVDRip] [DVO] торрент без регистрации

 
Статистика раздачи
Размер:  1,46 GB   |    Скачан:  125 раз
Сидов:  1  [  0 KB/s  ]  
 
Автор Сообщение

Marsianka

[] 


При исполнении.Полицейские убийцы / Да, мадам! / Police Assassins / Yes, Madam!

Год выхода: 1985
Жанр: боевик, боевые искусства, комедия
Режиссер: Кори Юэнь/Corey Yuen
В ролях: Мишель Йео, Синтия Ротрок, Джеймс Тьен, Джон Шам, Дик Вей, Манг Хой, Цуй Харк, Чунг Фат, Эдди Махер, Билли Лау, Билли Чинг, Ву Ма, Девид Чианг, Деннис Чан, Джонни Чеунг, Ка Ли, Квок Кван-Синг, Лам Вэй, Май Кей, Мелвин Вонг, Нг Хой-Тин, Нг Хон-Кеунг, Ричард Нг, Саммо Хунг...

О фильме: В Гонконг приезжает коррумпированный британский агент Ричард Нордон, целью которого является продажа боссу мафии по имени Тьен (Джеймс Тьен) микрофильма, изобличающего его преступные махинации. Но Нордон не сходится с ним в цене, и Тьен подсылает к нему убийцу (Дик Вей), который приканчивает англичанина, но микрофильм так и не находит. Пленка хранится в паспорте Нордона, который прихватили с собой воришки Стрепсил (Джон Шам) и Аспирин (Манг Хой). Не зная, что у них на руках существенная улика, они ведут свой обычный образ жизни, но у них на хвосте сидят две девушки-полицейские (Мишель Йео и Синтия Ротрок).




Рейтинг R - Детям до 18 лет обязательно присутствие родителей

Выпущено: Гонконг / D & B Films Co. Ltd.
Продолжительность: 01:23:36
Перевод:
Профессиональный (двухголосый, закадровый)

Кодек: XviD - Совместимо с бытовыми DVD-плеерами
Качество: DVDRip (Исходник - DVD 5. Спасибо loxaba)
Видео: 720x536 (1.34:1), 25 fps, XviD build 65 ~2034 kbps avg, 0.21 bit/pixel
Аудио: 48 kHz, AC3 Dolby Digital, 3/2 (L,C,R,l,r) + LFE ch, ~448 kbps

Общее
Полное имя:Da.madam.1985.XviD.DVDRip.DVO_SergV.avi
Формат : AVI
Формат/Информация : Audio Video Interleave
Размер файла : 1,46 Гбайт
Продолжительность : 1 ч. 23 м.
Общий поток : 2492 Кбит/сек
Название фильма : Da.madam.1985.XviD.DVDRip.DVO_SergV
Программа кодирования : VirtualDubMod 1.5.10.3 | www.virtualdub-fr.org || (build 2550/release)
Примечание : Рип от SergV

Видео
Идентификатор : 0
Формат : MPEG-4 Visual
Профиль формата : Advanced Simple@L5
Параметр BVOP формата : 2
Параметр QPel формата : Нет
Параметр GMC формата : Без точки перехода
Параметр матрицы формата : Default (MPEG)
Идентификатор кодека : XVID
Идентификатор кодека/Подсказка : XviD
Продолжительность : 1 ч. 23 м.
Битрейт : 2035 Кбит/сек
Ширина : 720 пикселей
Высота : 536 пикселей
Соотношение сторон : 4:3
Частота кадров : 25,000 кадров/сек
Цветовое пространство : YUV
Субдискретизация насыщенности : 4:2:0
Битовая глубина : 8 бит
Тип развёртки : Прогрессивная
Метод сжатия : С потерями
Бит/(Пиксели*Кадры) : 0.211
Размер потока : 1,19 Гбайт (82%)
Библиотека кодирования : XviD 65

Аудио
Идентификатор : 1
Формат : AC-3
Формат/Информация : Audio Coding 3
Расширение режима : CM (complete main)
Параметр Endianness формата : Big
Идентификатор кодека : 2000
Продолжительность : 1 ч. 23 м.
Вид битрейта : Постоянный
Битрейт : 448 Кбит/сек
Каналы : 6 каналов
Расположение каналов : Front: L C R, Side: L R, LFE
Частота : 48,0 КГц
Битовая глубина : 16 бит
Метод сжатия : С потерями
Размер потока : 268 Мбайт (18%)
Выравнивание : Разделение по промежуткам
Продолжительность промежутка : 40 мс. (1,00 видеокадр)
Время предзагрузки промежутка : 500 мс.
Релиз от:



Скачать При.исполнении.Полицейские.убийцы.Да.мадам!.Police.Assassins.Yes.Madam!.(Кори.Юэнь).[1985.боевик.боевые.искусства.комедия.DVDRip].[DVO].torrent без регистрации
Золото ЗОЛОТАЯ РАЗДАЧА! СКАЧАННОЕ НЕ ЗАСЧИТЫВАЕТСЯ! Золото
Дата: Зарегистрирован   [ Тип: внутренний ] Как тут cкачать?
MAGNET ссылка
MAGNET ссылка


Скачать .torrent

15 KB

Статус: проверено DHT
Скачан: торрент - 125 раз, раздача полностью - 40 раз
Размер: 1,46 GB
Оценка:  - (Голосов: 0)
Поблагодарили: 0
Поделиться ссылкой на эту раздачу с друзьями:
В контактеFacebookОдноклассникиTwitterLivejournalМой МирLiveinternet
 

 
Показать сообщения:    


Вы не можете начинать темы
Вы не можете отвечать на сообщения
Вы не можете редактировать свои сообщения
Вы не можете удалять свои сообщения
Вы не можете голосовать в опросах
Вы не можете прикреплять файлы к сообщениям
Вы можете скачивать файлы