Loading...
Error

Скачать Птичка на проводе / Bird on a Wire (Джон Бэдэм) [1990, комедийный боевик, HDTVRip] [AVO] (Михалёв) торрент без регистрации

 
Статистика раздачи
Размер:  1,48 GB   |    Скачан:  204 раза
Сидов:  1  [  0 KB/s  ]  
 
Автор Сообщение

leon030982

[] 

Птичка на проводе / Bird on a Wire


Год выпуска: 1990
Страна: США
Жанр: комедийный боевик
Продолжительность: 01:45:46
Перевод: Авторский (одноголосый закадровый) Михалёв
Cубтитры: нет
Сэмпл: Скачать
Режиссер: Джон Бэдэм /John Badham
В ролях: Мэл Гибсон, Голди Хоун, Дэвид Кэрредайн, Билл Дьюк, Стивен Тоболовски, Джоан Северанс,
Гарри Цезар, Джефф Кори, Алекс Брухански, Джон Пайпер-Фергюсон, Клайд Кусацу, Джексон Дэвис,
Тим Хили, Уэс Триттер, Лоссен Чэмберс
Описание: Приехав по делам в чужой город, адвокат Мэриэн Грейвс неожиданно узнает в местном автомеханике своего бывшего жениха Рика Джармина, бесследно исчезнувшего пятнадцать лет назад. Мэриэн подозревает, что он не в ладах с законом и от кого-то скрывается. Снедаемая любопытством, вечером того же дня она подъезжает к автомастерской, чтобы незаметно понаблюдать за Риком из машины. Мэриэн не предусмотрела одного: что теперь проблемы бывшего возлюбленного свалятся и ей на голову…

Благодарности: за звук спасибо dina1231
Качество видео: HDTVRip
Формат видео: AVI
Видео: 720x304 (2.37:1), 25 fps, XviD build 50 ~1799 kbps avg, 0.33 bit/pixel
Аудио: 48 kHz, AC3 Dolby Digital, 2/0 (L,R) ch, ~192.00 kbps avg
Общее
Полное имя : E:\Птичка на проводе (1990) Михалёв.avi
Формат : AVI
Формат/Информация : Audio Video Interleave
Размер файла : 1,48 Гбайт
Продолжительность : 1 ч. 45 м.
Общий поток : 2002 Кбит/сек
Программа кодирования : VirtualDubModRus 1.5.10.2 (build 2542/release)
Библиотека кодирования : VirtualDubMod build 2542/release
Видео
Идентификатор : 0
Формат : MPEG-4 Visual
Профиль формата : Advanced Simple@L5
Параметр BVOP формата : 1
Параметр QPel формата : Нет
Параметр GMC формата : Без точки перехода
Параметр матрицы формата : Default (H.263)
Идентификатор кодека : DX50
Идентификатор кодека/Подсказка : DivX 5
Продолжительность : 1 ч. 45 м.
Битрейт : 1800 Кбит/сек
Ширина : 720 пикселей
Высота : 304 пикселя
Соотношение сторон : 2,35:1
Частота кадров : 25,000 кадров/сек
Цветовое пространство : YUV
Субдискретизация насыщенности : 4:2:0
Битовая глубина : 8 бит
Тип развёртки : Прогрессивная
Метод сжатия : С потерями
Бит/(Пиксели*Кадры) : 0.329
Размер потока : 1,33 Гбайт (90%)
Библиотека кодирования : XviD 1.2.1 (UTC 2008-12-04)
Аудио
Идентификатор : 1
Формат : AC-3
Формат/Информация : Audio Coding 3
Расширение режима : CM (complete main)
Параметр Endianness формата : Big
Идентификатор кодека : 2000
Продолжительность : 1 ч. 45 м.
Вид битрейта : Постоянный
Битрейт : 192 Кбит/сек
Каналы : 2 канала
Расположение каналов : Front: L R
Частота : 48,0 КГц
Битовая глубина : 16 бит
Метод сжатия : С потерями
Размер потока : 145 Мбайт (10%)
Выравнивание : Разделение по промежуткам
Продолжительность промежутка : 40 мс. (1,00 видеокадр)
Время предзагрузки промежутка : 500 мс.



Скачать Птичка.на.проводе.Bird.on.a.Wire.(Джон.Бэдэм).[1990.комедийный.боевик.HDTVRip].[AVO].(Михалёв).torrent без регистрации
Золото ЗОЛОТАЯ РАЗДАЧА! СКАЧАННОЕ НЕ ЗАСЧИТЫВАЕТСЯ! Золото
Дата: Зарегистрирован   [ Тип: внутренний ] Как тут cкачать?
MAGNET ссылка
MAGNET ссылка


Скачать .torrent

15 KB

Статус: проверено DHT
Скачан: торрент - 204 раз, раздача полностью - 78 раз
Размер: 1,48 GB
Оценка:  - (Голосов: 0)
Поблагодарили: 4
Поделиться ссылкой на эту раздачу с друзьями:
В контактеFacebookОдноклассникиTwitterLivejournalМой МирLiveinternet
 

 
Показать сообщения:    


Вы не можете начинать темы
Вы не можете отвечать на сообщения
Вы не можете редактировать свои сообщения
Вы не можете удалять свои сообщения
Вы не можете голосовать в опросах
Вы не можете прикреплять файлы к сообщениям
Вы можете скачивать файлы