Loading...
Error

Скачать Безмолвные следы / Milczace slady (Збигнев Кузьминьский) [1961, детектив, военный, DVDRip] [Dub] торрент без регистрации

 
Статистика раздачи
Размер:  744 MB   |    Скачан:  129 раз

Полного источника не было: 23 минуты

 
Автор Сообщение

Marsianka

[] 

Год выпуска: 1961
Страна: Польша
Студия: Студия «Иллюзион»
Продолжительность: 01:19:43

Перевод: Профессиональный (полное дублирование)
Субтитры: нет
Жанр: детектив, военный
Оригинальная аудиодорожка: нет

Режиссер: Збигнев Кузьминьский / Zbigniew Kuzminski

В ролях: Рисзард Котис («Ва банк II»), Лех Войцеховский, Витольд Скарух, Рышард Котыс, Влодзимеж Скочилас, Ирэна Лясковска, Хенрик Бонк, Збигнев Добжиньский, Казимеж Фабисяк, Eugeniusz Fulde, Аугуст Ковальчик, Александр Севрук...
Дублировали: Владимир Прохоров, Григорий Абрикосов, Зоя Толбузина, Исай Гуров, Олег Голубицкий...

Описание: Польша 1946 год.
Банда Перуна, совершающая жестокие грабежи и убийства, терроризирует население крупной территории, неизменно уходя от справедливого возмездия. Пленный в ходе допроса сообщает капитану безопасности Морва, что у Перуна есть хорошо информированный осведомитель среди его преследователей. Капитан придумывает хитроумный план, в результате которого обезврежен Перун с сообщниками и предатель из группы Морва...

Исходник: DVD5 R5
Тип релиза: DVDRip
Контейнер: AVI

Видео: 640x496 (4:3), 25 fps, XviD ~ 1168 kbps avg, 0.147 bit/pixel
Аудио: 48 kHz, MP3, 2 ch, 128.00 kbps

Раздача от:

Общее
Полное имя : Bezmolvnye.sledy.1961.D.DVDRip_[Youtracker]_by_AVP Studio.avi
Формат : AVI
Формат/Информация : Audio Video Interleave
Размер файла : 744 Мбайт
Продолжительность : 1 ч. 19 м.
Общий поток : 1305 Кбит/сек
Программа кодирования : VirtualDubMod 1.5.10.3 | www.virtualdub-fr.org || (build 2550/release)
Библиотека кодирования : VirtualDubMod build 2550/release

Видео
Идентификатор : 0
Формат : MPEG-4 Visual
Профиль формата : Advanced Simple@L5
Параметр BVOP формата : 1
Параметр QPel формата : Нет
Параметр GMC формата : Без точки перехода
Параметр матрицы формата : Выборочная
Идентификатор кодека : XVID
Идентификатор кодека/Подсказка : XviD
Продолжительность : 1 ч. 19 м.
Битрейт : 1168 Кбит/сек
Ширина : 640 пикселей
Высота : 496 пикселей
Соотношение сторон : 1,290
Частота кадров : 25,000 кадров/сек
Цветовое пространство : YUV
Субдискретизация насыщенности : 4:2:0
Битовая глубина : 8 бит
Тип развёртки : Прогрессивная
Метод сжатия : С потерями
Бит/(Пиксели*Кадры) : 0.147
Размер потока : 666 Мбайт (89%)
Библиотека кодирования : XviD 65

Аудио
Идентификатор : 1
Формат : MPEG Audio
Версия формата : Version 1
Профиль формата : Layer 3
Идентификатор кодека : 55
Идентификатор кодека/Подсказка : MP3
Продолжительность : 1 ч. 19 м.
Вид битрейта : Постоянный
Битрейт : 128 Кбит/сек
Каналы : 2 канала
Частота : 48,0 КГц
Метод сжатия : С потерями
Размер потока : 73,0 Мбайт (10%)
Выравнивание : Соединение по промежуткам
Продолжительность промежутка : 40 мс. (1,00 видеокадр)
Время предзагрузки промежутка : 504 мс.
Библиотека кодирования : L3.99r
Настройки программы : -m s -V 4 -q 2 -lowpass 17 -b 128



Скачать Безмолвные.следы.Milczace.slady.(Збигнев.Кузьминьский).[1961.детектив.военный.DVDRip].[Dub].torrent без регистрации
Золото ЗОЛОТАЯ РАЗДАЧА! СКАЧАННОЕ НЕ ЗАСЧИТЫВАЕТСЯ! Золото
Дата: Зарегистрирован   [ Тип: внутренний ] Как тут cкачать?
MAGNET ссылка
MAGNET ссылка


Скачать .torrent

15 KB

Статус: проверено DHT
Скачан: торрент - 129 раз, раздача полностью - 5 раз
Размер: 744 MB
Оценка:  - (Голосов: 0)
Поблагодарили: 0
Поделиться ссылкой на эту раздачу с друзьями:
В контактеFacebookОдноклассникиTwitterLivejournalМой МирLiveinternet
 

 
Показать сообщения:    


Вы не можете начинать темы
Вы не можете отвечать на сообщения
Вы не можете редактировать свои сообщения
Вы не можете удалять свои сообщения
Вы не можете голосовать в опросах
Вы не можете прикреплять файлы к сообщениям
Вы можете скачивать файлы