Loading...
Error

Скачать В осаде / Нико 5 / Захват / Under Siege (Роб Эндрю Дэвис) [1992, боевик, триллер, HDRip] [DUB] торрент без регистрации

 
Статистика раздачи
Размер:  1,46 GB   |    Скачан:  200 раз
Сидов:  1  [  0 KB/s  ]  
 
Автор Сообщение

proljot2615

[] 


В осаде / Нико 5 / Захват / Under Siege


Год выпуска: 1992
Жанр: боевик, триллер
Продолжительность: 01:42:20.921
Перевод: Профессиональный (полное дублирование)

Режиссер: Роб Эндрю Дэвис

В ролях: Стивен Сигал, Томми Ли Джонс, Гэри Бьюзи, Эрика Элениак, Колм Мини, Патрик ОНил, Энди Романо, Ник Манкузо, Дэмиан Чапа, Трой Эванс...

Описание: Террористы бывшая элита коммандос под видом сопровождения рок-группы, которая должна выступить перед военными моряками, пробираются на корабль с ядерным оружием. Расправившись с основной частью команды, они пытаются шантажировать правительство США.
Все для захватчиков судна складывалось благополучно до тех пор, пока они не решили изолировать повара бывшего морского пехотинца. Кок не мог стерпеть такого издевательства: он практически в одиночку хоронит планы подонков один за другим.







Качество: HDRip
Формат: AVI
Видео кодек: XviD
Аудио кодек: AC3
Видео: 720x400 (1.80:1), 23.976 fps, XviD MPEG-4 ~1899 kbps avg, 0.28 bit/pixel
Аудио: 48 kHz, AC3 Dolby Digital, 2/0 (L,R) ch, ~128 kbps


Формат : AVI
Формат/Информация : Audio Video Interleave
Размер файла : 1,46 Гбайт
Продолжительность : 1 ч. 42 м.
Общий поток : 2037 Кбит/сек
Библиотека кодирования : VirtualDub build 30091/release

Видео
Идентификатор : 0
Формат : MPEG-4 Visual
Профиль формата : Advanced Simple@L5
Параметр BVOP формата : 2
Параметр QPel формата : Нет
Параметр GMC формата : Без точки перехода
Параметр матрицы формата : Default (H.263)
Режим смешивания : Сжатый битовый поток
Идентификатор кодека : XVID
Идентификатор кодека/Подсказка : XviD
Продолжительность : 1 ч. 42 м.
Битрейт : 1899 Кбит/сек
Ширина : 720 пикс.
Высота : 400 пикс.
Соотношение сторон : 16:9
Частота кадров : 23,976 кадр/сек
Цветовое пространство : YUV
Подвыборка цветности : 4:2:0
Битовая глубина : 8 бит
Тип развёртки : Прогрессивная
Метод сжатия : С потерями
Бит/(Пиксели*Кадры) : 0.275
Размер потока : 1,36 Гбайт (93%)
Библиотека кодирования : XviD 1.2.1 (UTC 2008-12-04)

Аудио
Идентификатор : 1
Формат : AC-3
Формат/Информация : Audio Coding 3
Расширение режима : CM (complete main)
Идентификатор кодека : 2000
Продолжительность : 1 ч. 42 м.
Вид битрейта : Постоянный
Битрейт : 128 Кбит/сек
Каналы : 2 канала
Расположение каналов : Front: L R
Частота : 48,0 КГц
Битовая глубина : 16 бит
Метод сжатия : С потерями
Размер потока : 93,7 Мбайт (6%)
Выравнивание : Соединение по промежуткам
Продолжительность промежутка : 42 мс. (1,00 видеокадр)
Время предзагрузки промежутка : 512 ms





Скачать В.осаде.Нико.5.Захват.Under.Siege.(Роб.Эндрю.Дэвис).[1992.боевик.триллер.HDRip].[DUB].torrent без регистрации
Золото ЗОЛОТАЯ РАЗДАЧА! СКАЧАННОЕ НЕ ЗАСЧИТЫВАЕТСЯ! Золото
Дата: Зарегистрирован   [ Тип: внутренний ] Как тут cкачать?
MAGNET ссылка
MAGNET ссылка


Скачать .torrent

15 KB

Статус: проверено DHT
Скачан: торрент - 200 раз, раздача полностью - 10 раз
Размер: 1,46 GB
Оценка:  - (Голосов: 0)
Поблагодарили: 4
Поделиться ссылкой на эту раздачу с друзьями:
В контактеFacebookОдноклассникиTwitterLivejournalМой МирLiveinternet
 

 

leon030982

[] 

пожалуйста добавьте рейтинги
 
Показать сообщения:    


Вы не можете начинать темы
Вы не можете отвечать на сообщения
Вы не можете редактировать свои сообщения
Вы не можете удалять свои сообщения
Вы не можете голосовать в опросах
Вы не можете прикреплять файлы к сообщениям
Вы можете скачивать файлы