Loading...
Error

Скачать Встреча со шпионом / Spotkanie ze szpiegiem (Ян Батори) [1964, детектив, DVDRip] [Dub] торрент без регистрации

 
Статистика раздачи
Размер:  1,46 GB   |    Скачан:  127 раз
Сидов:  1  [  0 KB/s  ]  
 
Автор Сообщение

Marsianka

[] 

Год выпуска: 1964
Страна: Польша
Студия: Zespol Filmowy "Syrena"
Продолжительность: 01:41:25

Перевод: Профессиональный (полное дублирование)
Субтитры: нет
Жанр: детектив
Оригинальная аудиодорожка: нет

Режиссер: Ян Батори / Jan Batory

В ролях: Беата Тышкевич / Beata Tyszkiewicz (Мария Полинская / Maria Polinska) дублирует Наталья Фатеева, Катажина Ланевская /Katarzyna Laniewska (Бася Гедровская / Basia Giedrowska) дублирует Г.Самохина, Игнаций Маховский /Ignacy Machowski (Бернард /Bernard) дублирует Михаил Глузский, Станислав Микульский /Stanislaw Mikulski (Лейтенант Бачный/Lt. Baczny) дублирует Ю.Боголюбов, Збигнев Запасевич /Zbigniew Zapasiewicz (Капитан Крез / Capt. Kres) дублирует Эдуард Бредун, Ежи Вальчак/ Jerzy Walczak (Зигмунд /Zygmunt) дублирует В.Ферапонтов, Хенрик Бонк/Henryk Bak (Майор Люба/Maj. Luba) дублирует А.Толбузин, Станислав Гронковский/Stanislaw Gronkowski (Людвиг Митула/Ludwik Mitula) и другие.

Описание: Иностранная разведка засылает на территорию Польши шпиона под именем Бернард. Служба польской радиолокации запеленговывает место приземления шпиона. Контрразведка начинает следить за действиями Бернарда, и вскоре трое оперативников обнаруживают сообщницу шпиона медсестру Марию
Этот знаменитый шпионский триллер Яна Баторы, стал лидером проката всех европейских соцстран. Успех его в СССР был столь велик, что приняли решение создать аналогичную советскую картину. В 1965-1966 годах по мотивам польского детектива режиссер Анатолий Бобровский снял фильм "Человек без паспорта" с Владимиром Заманским в главной роли...

Исходник: DVD5 R5
Тип релиза: DVDRip
Контейнер: AVI

Видео: 688x528 (4:3), 25 fps, XviD ~ 1853 kbps avg, 0.204 bit/pixel
Аудио: 48 kHz, AC3, 2 ch, 192.00 kbps

Раздача от:

Общее
Полное имя : Vstrecha.so.shpionom.D.1964.DVDRip_[Youtracker]_by_AVP Studio.avi
Формат : AVI
Формат/Информация : Audio Video Interleave
Размер файла : 1,46 Гбайт
Продолжительность : 1 ч. 41 м.
Общий поток : 2055 Кбит/сек
Программа кодирования : VirtualDubMod 1.5.10.3 | www.virtualdub-fr.org || (build 2550/release)
Библиотека кодирования : VirtualDubMod build 2550/release

Видео
Идентификатор : 0
Формат : MPEG-4 Visual
Профиль формата : Advanced Simple@L5
Параметр BVOP формата : 1
Параметр QPel формата : Нет
Параметр GMC формата : Без точки перехода
Параметр матрицы формата : Выборочная
Идентификатор кодека : XVID
Идентификатор кодека/Подсказка : XviD
Продолжительность : 1 ч. 41 м.
Битрейт : 1853 Кбит/сек
Ширина : 688 пикселей
Высота : 528 пикселей
Соотношение сторон : 4:3
Частота кадров : 25,000 кадров/сек
Цветовое пространство : YUV
Субдискретизация насыщенности : 4:2:0
Битовая глубина : 8 бит
Тип развёртки : Прогрессивная
Метод сжатия : С потерями
Бит/(Пиксели*Кадры) : 0.204
Размер потока : 1,31 Гбайт (90%)
Библиотека кодирования : XviD 65

Аудио
Идентификатор : 1
Формат : AC-3
Формат/Информация : Audio Coding 3
Расширение режима : CM (complete main)
Идентификатор кодека : 2000
Продолжительность : 1 ч. 41 м.
Вид битрейта : Постоянный
Битрейт : 192 Кбит/сек
Каналы : 2 канала
Расположение каналов : Front: L R
Частота : 48,0 КГц
Битовая глубина : 16 бит
Метод сжатия : С потерями
Размер потока : 139 Мбайт (9%)
Выравнивание : Разделение по промежуткам
Продолжительность промежутка : 40 мс. (1,00 видеокадр)
Время предзагрузки промежутка : 500 мс



Скачать Встреча.со.шпионом.Spotkanie.ze.szpiegiem.(Ян.Батори).[1964.детектив.DVDRip].[Dub].torrent без регистрации
Золото ЗОЛОТАЯ РАЗДАЧА! СКАЧАННОЕ НЕ ЗАСЧИТЫВАЕТСЯ! Золото
Дата: Зарегистрирован   [ Тип: внутренний ] Как тут cкачать?
MAGNET ссылка
MAGNET ссылка


Скачать .torrent

15 KB

Статус: проверено DHT
Скачан: торрент - 127 раз, раздача полностью - 31 раз
Размер: 1,46 GB
Оценка:  - (Голосов: 0)
Поблагодарили: 1
Поделиться ссылкой на эту раздачу с друзьями:
В контактеFacebookОдноклассникиTwitterLivejournalМой МирLiveinternet
 

 
Показать сообщения:    


Вы не можете начинать темы
Вы не можете отвечать на сообщения
Вы не можете редактировать свои сообщения
Вы не можете удалять свои сообщения
Вы не можете голосовать в опросах
Вы не можете прикреплять файлы к сообщениям
Вы можете скачивать файлы