Loading...
Error

Скачать Большое ограбление поезда / The Great Train Robbery (Эдвин Стэнтон Портер) [1903, немое кино, короткометражка, вестерн, DVDRip] торрент без регистрации

 
Статистика раздачи
Размер:  159 MB   |    Скачан:  112 раз
Сидов:  1  [  0 KB/s  ]  
 
Автор Сообщение

Marsianka

[] 

Большое ограбление поезда
The Great Train Robbery

Страна: США
Жанр: немое кино, короткометражка, вестерн
Год выпуска: 1903
Продолжительность: 00:09:42
Перевод: Не требуется
Субтитры: Нет

Режиссёр: Эдвин Стэнтон Портер / Edwin Stanton Porter
В ролях:
Джастес Д.Барнс - [Главарь банды]
Гилберт М.Андерсон - [Бандит / Нервный пассажир / Танцор / Кочегар]
Джон М.Догерти-Старший - [Бандит]
Фрэнк Хэнауэй - [Бандит]
Мэри Мюррей - [Девушка в дансинг-холле]
Мэри Сноу - [Дочь телеграфиста]
Дональд Галлахер - [Мальчик]

Описание фильма:
На небольшой станции два бандита в масках входят в помещение телеграфа. Под дулом револьвера они заставляют телеграфиста выполнить их требования...



Качество: DVDRip
Формат: AVI
Видео: 720x576 (5:4), 25,000 кадр/сек, XviD ~ 2 001 Кбит/сек, 0.193 бит/сек
Аудио 1: 48,0 КГц, MPEG Layer 3, 2 канала, ~ 32,0 Кбит/сек
Аудио 2: 44,1 КГц, MPEG Layer 3, 2 канала, ~ 93,2 Кбит/сек





Format : AVI
Format/Info : Audio Video Interleave
File size : 159 MiB
Duration : 9mn 42s
Overall bit rate : 2 292 Kbps
Writing application : VirtualDubMod 1.5.10.2 (build 2542/release)
Writing library : VirtualDubMod build 2542/release

Video
ID : 0
Format : MPEG-4 Visual
Format profile : Simple@L3
Format settings, BVOP : No
Format settings, QPel : No
Format settings, GMC : No warppoints
Format settings, Matrix : Default (H.263)
Codec ID : XVID
Codec ID/Hint : XviD
Duration : 9mn 42s
Bit rate : 2 001 Kbps
Width : 720 pixels
Height : 576 pixels
Display aspect ratio : 5:4
Frame rate : 25.000 fps
Standard : PAL
Color space : YUV
Chroma subsampling : 4:2:0
Bit depth : 8 bits
Scan type : Progressive
Compression mode : Lossy
Bits/(Pixel*Frame) : 0.193
Stream size : 139 MiB (87%)
Writing library : XviD 1.2.1 (UTC 2008-12-04)

Audio #1
ID : 1
Format : MPEG Audio
Format version : Version 1
Format profile : Layer 3
Mode : Joint stereo
Mode extension : MS Stereo
Codec ID : 55
Codec ID/Hint : MP3
Duration : 9mn 42s
Bit rate mode : Constant
Bit rate : 32.0 Kbps
Channel(s) : 2 channels
Sampling rate : 48.0 KHz
Compression mode : Lossy
Stream size : 12.9 MiB (8%)
Alignment : Split accross interleaves
Interleave, duration : 40 ms (1.00 video frame)
Interleave, preload duration : 500 ms
Writing library : LAME3.98

Audio #2
ID : 2
Format : MPEG Audio
Format version : Version 1
Format profile : Layer 3
Mode : Joint stereo
Mode extension : MS Stereo
Codec ID : 55
Codec ID/Hint : MP3
Duration : 9mn 28s
Bit rate mode : Variable
Bit rate : 93.2 Kbps
Channel(s) : 2 channels
Sampling rate : 44.1 KHz
Compression mode : Lossy
Stream size : 6.31 MiB (4%)
Alignment : Split accross interleaves
Interleave, duration : 41 ms (1.02 video frame)
Interleave, preload duration : 500 ms

Релиз от: geka9999



Скачать Большое.ограбление.поезда.The.Great.Train.Robbery.(Эдвин.Стэнтон.Портер).[1903.немое.кино.короткометражка.вестерн.DVDRip].torrent без регистрации
Золото ЗОЛОТАЯ РАЗДАЧА! СКАЧАННОЕ НЕ ЗАСЧИТЫВАЕТСЯ! Золото
Дата: Зарегистрирован   [ Тип: внутренний ] Как тут cкачать?
MAGNET ссылка
MAGNET ссылка


Скачать .torrent

13 KB

Статус: проверено DHT
Скачан: торрент - 112 раз, раздача полностью - 8 раз
Размер: 159 MB
Оценка:  5 (Голосов: 1)
Поблагодарили: 2
Поделиться ссылкой на эту раздачу с друзьями:
В контактеFacebookОдноклассникиTwitterLivejournalМой МирLiveinternet
 

 

leon030982

[] 

Спасибо ab
 
Показать сообщения:    


Вы не можете начинать темы
Вы не можете отвечать на сообщения
Вы не можете редактировать свои сообщения
Вы не можете удалять свои сообщения
Вы не можете голосовать в опросах
Вы не можете прикреплять файлы к сообщениям
Вы можете скачивать файлы