Loading...
Error

Скачать Успеть до полуночи / Midnight Run (Мартин Брест) [1987 г., Детектив, Боевик, Комедия, Приключения, Триллер, HDRip] 2x[MVO] + [AVO] (Леонид Володарский) + [AVO] (Алексей Михалёв) торрент без регистрации

 
Статистика раздачи
Размер:  2,71 GB   |    Скачан:  128 раз
Сидов:  1  [  0 KB/s  ]  
 
Автор Сообщение

leon030982

[] 

Успеть до полуночи / Midnight Run


Год выхода: 1988
Выпущено: США (Universal Pictures)
Жанр: боевик, триллер, комедия, криминал, приключения
Продолжительность: 02:06:15
Перевод:Профессиональный (Многоголосый, закадровый)

Режиссер: Мартин Брест

В главных ролях: Роберт Де Ниро, Чарльз Гродин, Яфет Котто, Джон Эштон, Дэннис Фарина, Джо Пантолиано, Ричард Фороньи, Роберт Миранда, Джек Кехо, Венди Филлипс, Danielle DuClos, Филип Бэйкер Холл, Tom McCleister, Мэри Гиллис, Джон Тоулс-Бей, Thomas J. Hageboeck, Стэнли Уайт, Скотт МакЭфи, Linda Margules, Луис Смит, Фран Брилл

О фильме:
Джек Уолш опытный профессионал, мастер своего дела. Когда-то он служил в полиции, а теперь занимается частным сыском. Его специализация операции по поимке беглых преступников. В этот раз Джек занят поисками Джонатана Мардукаса, известного под кличкой «Герцог&raquo. Мардукас, скромный и интеллигентный бухгалтер, умудрился украсть у мафии 15 миллионов долларов. По договоренности Джек должен поймать «Герцога», заковать в наручники и доставить на самолете из Нью-Йорка в Лос-Анджелес в условленный срок. За это Уолш получит целых сто тысяч долларов.
Для искушенного «охотника за головами» подобное задание сущий пустяк. Но Джек не учел, что помимо него за Мардукасом активно охотятся гангстеры, ФБР и вероломный коллега-конкурент. Более того, Мардукас панически боится летать и Джеку предстоит везти Герцога через всю Америку.




Качество: HDRip
Формат: AVI
Видео: 720x384; (1.88:1); 23.976fps; 1893 Kbps; 0.29bit/pixel
Аудио кодек: AC3
Многоголосый, закадровый; Многоголосый, закадровый (телеканал СтС); Одноголосый, закадровый (Леонид Володарский); Одноголосый, закадровый (Алексей Михалёв); Английский

Audio #1
Format : AC-3
Format/Info : Audio Coding 3
Codec ID : 2000
Duration : 2h 6mn
Bit rate mode : Constant
Bit rate : 192 Kbps
Channel(s) : 2 channels
Channel positions : L R
Sampling rate : 48.0 KHz
Stream size : 173 MiB (6%)
Alignment : Split accross interleaves
Interleave, duration : 42 ms (1.00 video frame)
Interleave, preload duration : 500 ms
Title : Многоголосый, закадровый
Audio #2
Format : AC-3
Format/Info : Audio Coding 3
Codec ID : 2000
Duration : 2h 6mn
Bit rate mode : Constant
Bit rate : 192 Kbps
Channel(s) : 2 channels
Channel positions : L R
Sampling rate : 48.0 KHz
Stream size : 173 MiB (6%)
Alignment : Split accross interleaves
Interleave, duration : 42 ms (1.00 video frame)
Interleave, preload duration : 500 ms
Title : Многоголосый, закадровый (телеканал СтС)
Audio #3
Format : AC-3
Format/Info : Audio Coding 3
Codec ID : 2000
Duration : 2h 6mn
Bit rate mode : Constant
Bit rate : 192 Kbps
Channel(s) : 2 channels
Channel positions : L R
Sampling rate : 48.0 KHz
Stream size : 173 MiB (6%)
Alignment : Split accross interleaves
Interleave, duration : 42 ms (1.00 video frame)
Interleave, preload duration : 500 ms
Title : Одноголосый, закадровый (Леонид Володарский)
Audio #4
Format : AC-3
Format/Info : Audio Coding 3
Codec ID : 2000
Duration : 2h 6mn
Bit rate mode : Constant
Bit rate : 192 Kbps
Channel(s) : 2 channels
Channel positions : L R
Sampling rate : 48.0 KHz
Stream size : 173 MiB (6%)
Alignment : Split accross interleaves
Interleave, duration : 42 ms (1.00 video frame)
Interleave, preload duration : 500 ms
Title : Одноголосый, закадровый (Алексей Михалёв)
Audio #5
Format : AC-3
Format/Info : Audio Coding 3
Codec ID : 2000
Duration : 2h 6mn
Bit rate mode : Constant
Bit rate : 384 Kbps
Channel(s) : 6 channels
Channel positions : Front: L C R, Surround: L R, LFE
Sampling rate : 48.0 KHz
Stream size : 347 MiB (13%)
Alignment : Split accross interleaves
Interleave, duration : 42 ms (1.00 video frame)
Interleave, preload duration : 500 ms
Title : Английский



Скачать Успеть.до.полуночи.Midnight.Run.(Мартин.Брест).[1987.г.Детектив.Боевик.Комедия.Приключения.Триллер.HDRip].2x[MVO].+.[AVO].(Леонид.Володарский).+.[AVO].(Алексей.Михалёв).torrent без регистрации
Золото ЗОЛОТАЯ РАЗДАЧА! СКАЧАННОЕ НЕ ЗАСЧИТЫВАЕТСЯ! Золото
Дата: Зарегистрирован   [ Тип: внутренний ] Как тут cкачать?
MAGNET ссылка
MAGNET ссылка


Скачать .torrent

14 KB

Статус: проверено DHT
Скачан: торрент - 128 раз, раздача полностью - 25 раз
Размер: 2,71 GB
Оценка:  5 (Голосов: 1)
Поблагодарили: 2
Поделиться ссылкой на эту раздачу с друзьями:
В контактеFacebookОдноклассникиTwitterLivejournalМой МирLiveinternet
 

 
Показать сообщения:    


Вы не можете начинать темы
Вы не можете отвечать на сообщения
Вы не можете редактировать свои сообщения
Вы не можете удалять свои сообщения
Вы не можете голосовать в опросах
Вы не можете прикреплять файлы к сообщениям
Вы можете скачивать файлы