Loading...
Error

Скачать Гримм / Grimm (сезон 02) (Марк Баклэнд) [2012-2013, ужасы, фэнтези, драма, WEB-DLRip] [1080p] [MVO (LostFilm)] торрент без регистрации

 
Статистика раздачи
Размер:  38,83 GB   |    Скачан:  7898 раз
Сидов:  1  [  992 KB/s  ]  
 
Автор Сообщение

МихаНЕзатор

[] 

Название: Гримм
Оригинальное название: Grimm
Год выхода: 2012-2013
Жанр: Ужасы, фэнтези, драма
Режиссер: Марк Баклэнд

В ролях: Дэйв Гвинтоли, Расселл Хорнсби, Битси Таллоч, Сайлас Уэйр Митчелл, Саша Ройз, Регги Ли, Клэр Коффи, Айанна Беркшир, Кейт Бёртон, Тим Бэгли

Описание: Действие происходит в современном Портленде, где детектив из отдела убийств узнаёт, что он является потомком группы охотников, известных как «Гриммы», которые сражаются, чтобы сохранить человечество в безопасности от сверхъестественных существ. Узнав о своей судьбе, и том, что он является последним из своего рода, он должен защитить каждую живую душу от зловещих персонажей сборника сказок, которые проникли в реальный мир.

Страна: США
Продолжительность: ~ 14 x 00:45:00
Перевод: Профессиональный (многоголосый, закадровый) - LostFilm
Субтитры: Английские

Релиз от:

Качество: WEB-DL 1080p
Формат: MKV
Видео кодек: H.264
Аудио кодек: AC3
Видео: MPEG-4 AVC, 1920x1080, ~5000 kbps, 23.976 fps, 0.18 bit/pixel
Аудио Rus: AC3, 3/2 (L,C,R,l,r) + LFE ch, ~384 kbps
Аудио Eng: AC3, 3/2 (L,C,R,l,r) + LFE ch, ~384 kbps

28.05.2013 г. торент обновлён, добавлена 18-22 серия. Сезон полностью!

01 - "Сквернозуб / Bad Teeth"
02 - "Поцелуй / The Kiss"
03 - "Восход дурной луны / Bad Moon Rising"
04 - "Игла / Quill"
05 - "Добрый пастырь / The Good Shepherd"
06 - "Через мой труп / Over My Dead Body"
07 - "Чертёнок в бутылке / The Bottle Imp"
08 - "Другая сторона / The Other Side"
09 - "Ла Йорона / La Llorona"
10 - "Смертный час / The Hour of Death"
11 - "Тот, кто служит и защищает / To Protect and Serve Man"
12 - "Ведьмина пора / Season of the Hexenbiest"
13 - Лицом к лицу
14. Прирождённое существо / Natural Born Wesen
15. Господин Песочный человек / Mr. Sandman
16. Безымянный / Nameless
17. Один сердитый рыжехвост / One Angry Fuchsbau
18. Огненное кольцо / Ring of Fire
19. Вымирающий вид / Endangered
20. Поцелуй музы / Kiss of the Muse
21. Ожившие мертвецы / The Waking Dead
22. Спи, милый Гримм / Goodnight, Sweet Grimm




General
Complete name : Grimm.S02E07.1080p.WEB-DL.Rus.Eng.HDCLUB.mkv
Format : Matroska
Format version : Version 2
File size : 1.80 GiB
Duration : 43mn 14s
Overall bit rate : 5 948 Kbps
Movie name : Grimm [Season 2] (2012) - Release for HDCLUB
Encoded date : UTC 2012-10-18 12:29:42
Writing application : mkvmerge v5.8.0 ('No Sleep / Pillow') built on Sep 2 2012 15:37:04
Writing library : libebml v1.2.3 + libmatroska v1.3.0

Video
ID : 1
Format : AVC
Format/Info : Advanced Video Codec
Format profile : High@L4.0
Format settings, CABAC : Yes
Format settings, ReFrames : 4 frames
Codec ID : V_MPEG4/ISO/AVC
Duration : 43mn 14s
Bit rate : 5 062 Kbps
Width : 1 920 pixels
Height : 1 080 pixels
Display aspect ratio : 16:9
Frame rate : 23.976 fps
Color space : YUV
Chroma subsampling : 4:2:0
Bit depth : 8 bits
Scan type : Progressive
Bits/(Pixel*Frame) : 0.102
Stream size : 1.53 GiB (85%)
Title : Grimm 2x07: The Bottle Imp / Чертёнок в бутылке - Release for HDCLUB
Language : English
Default : Yes
Forced : No
Color primaries : BT.709-5, BT.1361, IEC 61966-2-4, SMPTE RP177
Transfer characteristics : BT.709-5, BT.1361
Matrix coefficients : BT.709-5, BT.1361, IEC 61966-2-4 709, SMPTE RP177

Audio #1
ID : 2
Format : AC-3
Format/Info : Audio Coding 3
Mode extension : CM (complete main)
Format settings, Endianness : Big
Codec ID : A_AC3
Duration : 43mn 14s
Bit rate mode : Constant
Bit rate : 384 Kbps
Channel(s) : 6 channels
Channel positions : Front: L C R, Side: L R, LFE
Sampling rate : 48.0 KHz
Bit depth : 16 bits
Compression mode : Lossy
Stream size : 119 MiB (6%)
Title : LostFilm
Language : Russian
Default : Yes
Forced : No

Audio #2
ID : 3
Format : AC-3
Format/Info : Audio Coding 3
Mode extension : CM (complete main)
Format settings, Endianness : Big
Codec ID : A_AC3
Duration : 43mn 14s
Bit rate mode : Constant
Bit rate : 384 Kbps
Channel(s) : 6 channels
Channel positions : Front: L C R, Side: L R, LFE
Sampling rate : 48.0 KHz
Bit depth : 16 bits
Compression mode : Lossy
Stream size : 119 MiB (6%)
Language : English
Default : No
Forced : No

Text
ID : 4
Format : UTF-8
Codec ID : S_TEXT/UTF8
Codec ID/Info : UTF-8 Plain Text
Language : English
Default : No
Forced : No



Скачать Гримм.Grimm.(сезон.02).(Марк.Баклэнд).[2012-2013.ужасы.фэнтези.драма.WEB-DLRip].[1080p].[MVO.(LostFilm)].torrent без регистрации
Золото ЗОЛОТАЯ РАЗДАЧА! СКАЧАННОЕ НЕ ЗАСЧИТЫВАЕТСЯ! Золото
Дата: Зарегистрирован   [ Тип: внутренний ] Как тут cкачать?
MAGNET ссылка
MAGNET ссылка


Скачать .torrent

196 KB

Статус: проверено DHT
Скачан: торрент - 7898 раз, раздача полностью - 149 раз
Размер: 38,83 GB
Оценка:  5 (Голосов: 3)
Поблагодарили: 5
Поделиться ссылкой на эту раздачу с друзьями:
В контактеFacebookОдноклассникиTwitterLivejournalМой МирLiveinternet
 

 

МихаНЕзатор

[] 

Раздача обновлена
 
Показать сообщения:    


Вы не можете начинать темы
Вы не можете отвечать на сообщения
Вы не можете редактировать свои сообщения
Вы не можете удалять свои сообщения
Вы не можете голосовать в опросах
Вы не можете прикреплять файлы к сообщениям
Вы можете скачивать файлы