Loading...
Error

Скачать Пожарные Чикаго / Chicago Fire (Полный 1-ый сезон) (Джо Чаппелль) [2012, Драма, BDRip] [720p] [MVO] (Universal Russia) торрент без регистрации

 
Статистика раздачи
Размер:  64,32 GB   |    Скачан:  211 раз
Сидов:  1  [  0 KB/s  ]  
 
Автор Сообщение

leon030982

[] 

Пожарные Чикаго / Chicago Fire



Год выпуска: 2012
Страна: США
Жанр: Драма
Продолжительность: 00:43:06
Перевод: Профессиональный (многоголосый, закадровый) [Universal Russia]
Субтитры: нет.
Режиссёр: Джо Чаппелль
В ролях: Джесси Спенсер, Тэйлор Кинни, Эамон Уолкер, Дэвид Эйгенберг, Лорен Герман, Терри Ривз, Моника Реймунд и др.
Описание: Сериал рассказывает о самой тяжелой и опасной работе — пожарных и спасателей чикагского отделения Firehouse 51. Несмотря на повседневные геройства мужчин и женщин, их огромная самоотдача приводит к личным потерям. Главные герой Мэтью Кейси, прирожденный лидер и настоящий пожарный. Однако развод с женой заставляет его взглянуть по-новому на многие вещи. Кроме этого, Кейси постоянно находится в конфронтации с другим членом своей команды — лейтенантом Келли Северайдом.


Качество: BDRip (720p)
Формат: MKV
Видео кодек: h.264
Аудио кодек: MP3
Видео: MPEG-4 AVC, ~ 7500 Кбит/с, 1280x720, 23.976 кадр/с
Аудио #1 (rus): AC3, 2 ch, 192 Кбит/с
Аудио #2 (eng): DTS, 6 ch, 1536 Кбит/с |Original|
Запись звука HPotter, сведение Beer kolesik Drinkers, HPotter.
В 1-й серии есть несколько небольших мест без перевода, вырезано каналом.

Перевод: Многоголосый закадровый, SDI Media, Universal Russia


General
Unique ID : 212766831387102091754783973654207159747 (0xA01166B35835DCFBB8C20DAE49B05DC3)
Complete name : D:\Загрузка\Chicago.Fire.S01.2012.720p.BluRay.Rus.Eng.HDCLUB\Chicago.Fire.S01E01.Pilot.2012.720p.BluRay.Rus.Eng.HDCLUB.mkv
Format : Matroska
Format version : Version 4 / Version 2
File size : 2.81 GiB
Duration : 42mn 35s
Overall bit rate : 9 429 Kbps
Encoded date : UTC 2013-12-13 10:51:27
Writing application : mkvmerge v6.6.0 ('The Edge Of The In Between') built on Dec 1 2013 17:55:00
Writing library : libebml v1.3.0 + libmatroska v1.4.1

Video
ID : 1
Format : AVC
Format/Info : Advanced Video Codec
Format profile : High@L4.1
Format settings, CABAC : Yes
Format settings, ReFrames : 9 frames
Codec ID : V_MPEG4/ISO/AVC
Duration : 42mn 35s
Bit rate : 7 541 Kbps
Width : 1 280 pixels
Height : 720 pixels
Display aspect ratio : 16:9
Frame rate mode : Constant
Frame rate : 23.976 fps
Color space : YUV
Chroma subsampling : 4:2:0
Bit depth : 8 bits
Scan type : Progressive
Bits/(Pixel*Frame) : 0.341
Stream size : 2.24 GiB (80%)
Title : Chicago Fire. Season 01 Episode 01 "Pilot"
Writing library : x264 core 138 r2358 9e941d1
Encoding settings : cabac=1 / ref=9 / deblock=1:-3:-3 / analyse=0x3:0x133 / me=umh / subme=10 / psy=1 / psy_rd=1.05:0.00 / mixed_ref=1 / me_range=32 / chroma_me=1 / trellis=2 / 8x8dct=1 / cqm=0 / deadzone=21,11 / fast_pskip=0 / chroma_qp_offset=-2 / threads=12 / lookahead_threads=2 / sliced_threads=0 / nr=0 / decimate=1 / interlaced=0 / bluray_compat=0 / constrained_intra=0 / bframes=9 / b_pyramid=2 / b_adapt=2 / b_bias=0 / direct=3 / weightb=1 / open_gop=0 / weightp=2 / keyint=250 / keyint_min=23 / scenecut=40 / intra_refresh=0 / rc=crf / mbtree=0 / crf=16.0 / qcomp=0.75 / qpmin=0 / qpmax=69 / qpstep=4 / ip_ratio=1.40 / pb_ratio=1.20 / aq=1:0.80
Language : English
Default : Yes
Forced : No

Audio #1
ID : 2
Format : AC-3
Format/Info : Audio Coding 3
Mode extension : CM (complete main)
Format settings, Endianness : Big
Codec ID : A_AC3
Duration : 42mn 35s
Bit rate mode : Constant
Bit rate : 192 Kbps
Channel(s) : 2 channels
Channel positions : Front: L R
Sampling rate : 48.0 KHz
Bit depth : 16 bits
Compression mode : Lossy
Stream size : 58.5 MiB (2%)
Title : AC3 2.0 @ 192 kbps - SDI Media, Universal Russia
Language : Russian
Default : Yes
Forced : No

Audio #2
ID : 3
Format : DTS
Format/Info : Digital Theater Systems
Mode : 16
Format settings, Endianness : Big
Codec ID : A_DTS
Duration : 42mn 35s
Bit rate mode : Constant
Bit rate : 1 509 Kbps
Channel(s) : 6 channels
Channel positions : Front: L C R, Side: L R, LFE
Sampling rate : 48.0 KHz
Bit depth : 24 bits
Compression mode : Lossy
Stream size : 460 MiB (16%)
Title : DTS 5.1 @ 1536 kbps
Language : English
Default : No
Forced : No

Text
ID : 4
Format : PGS
Muxing mode : zlib
Codec ID : S_HDMV/PGS
Codec ID/Info : The same subtitle format used on BDs/HD-DVDs
Language : English
Default : No
Forced : No
Внимание! Раздача ведётся путём добавления новых серий; при каждом добавлении создётся новый торрент. Чтобы начать докачку новой серии, пользователям необходимо сделать следующее:
(1) остановить скачивание,
(2) удалить старый торрент у себя из клиента (старые серии удалять не надо),
(3) скачать новый торрент и запустить его у себя в клиенте вместо старого, при этом указать клиенту путь в старую папку куда и должно происходить скачивание новых серий.
Ваш клиент при этом должен произвести хеширование (проверку) старой папки (если не производит сам - помогите ему сделать это), и будет докачивать только те серии которых у вас ещё нет. Старые серии при этом не удаляются, а продолжают раздаваться!
Eсли вы уже удалили старые серии, то предотвратить повторную закачку старых серий можно, отжав галочку в соответсвующих местах при запуске нового торрента.

23-24-я серия!



Скачать Пожарные.Чикаго.Chicago.Fire.(Полный.1-ый.сезон).(Джо.Чаппелль).[2012.Драма.BDRip].[720p].[MVO].(Universal.Russia).torrent без регистрации
Золото ЗОЛОТАЯ РАЗДАЧА! СКАЧАННОЕ НЕ ЗАСЧИТЫВАЕТСЯ! Золото
Дата: Зарегистрирован   [ Тип: внутренний ] Как тут cкачать?
MAGNET ссылка
MAGNET ссылка


Скачать .torrent

164 KB

Статус: проверено DHT
Скачан: торрент - 211 раз, раздача полностью - 0 раз
Размер: 64,32 GB
Оценка:  - (Голосов: 0)
Поблагодарили: 0
Поделиться ссылкой на эту раздачу с друзьями:
В контактеFacebookОдноклассникиTwitterLivejournalМой МирLiveinternet
 

 

leon030982

[] 

Отличный сериал ay рекомендую к просмотру ab сам смотрю другую раздачу в авторской озвучке Шадинского ab
 

leon030982

[] 

Цитата:

Заменено на лучшее качество видео BDRip [720p] и Перевод: Профессиональный (многоголосый, закадровый) [Universal Russia]
 

leon030982

[] 

3-4-я серии
 

leon030982

[] 

Раздача обновлена!
 

leon030982

[] 

Обновлено!!!
 

leon030982

[] 

Раздача обновлена!
 

leon030982

[] 

Обновлено!Сезон завершен
 
Показать сообщения:    


Вы не можете начинать темы
Вы не можете отвечать на сообщения
Вы не можете редактировать свои сообщения
Вы не можете удалять свои сообщения
Вы не можете голосовать в опросах
Вы не можете прикреплять файлы к сообщениям
Вы можете скачивать файлы