Loading...
Error

Скачать Зазубренное лезвие / Jagged Edge (Ричард Маркуэнд) [1985, триллер, мелодрама, детектив, BDRip-AVC] [MVO]+[DVO]+[AVO]+[Sub] торрент без регистрации

 
Статистика раздачи
Размер:  3,05 GB   |    Скачан:  108 раз
Сидов:  1  [  0 KB/s  ]  
 
Автор Сообщение

Marsianka

[] 

Информация о фильме
Название: Зазубренное лезвие
Оригинальное название: Jagged Edge
Год выпуска: 1985
Жанр: триллер, мелодрама, детектив
Режиссер: Ричард Маркуэнд
В ролях: Джефф Бриджес, Гленн Клоуз, Питер Койот, Роберт Лоджа, Джон Денер, Лэнс Хенриксен, Аль Руссо, Мария Майензет, Дэйв Остин, Ричард Пэртлоу, Уильям Аллен Янг, Бен Хаммер, Джеймс Карен, Санфорд Дженсен, Вуди Еней, Шарон Хэниан, Сара Каннингэм, Энн Уолкер, Джеймс Уинклер, Брюс Френч, Брэндон Колл, Кристина Хаттер, Джон Фурлонг, Карен Уоннелл, Шарон Мэдден, Гай Бойд, Филлис Эпплгейт, Майкл Дорн, Джон Кларк, Луис Гьямбалво, Дэвид Уайли, Ли Тейлор-Янг, Джей Кримп, Майк Митчел, Дайан Эриксон, Маршалл Кольт, Уолтер Брук, Карен Остин, Билл Грэттон, Джойс Шэнк

О фильме: Чувства лишают нас объективности и ведут к катастрофе там, где нужен исключительно холодный ум. Женщина-адвокат Тедди Варне забыла эту простую истину, влюбившись в своего клиента, богача Джека Форрестера, обвиненного в убийстве жены. Чем сильнее ее страсть к кажущемуся таким искренным и честным парнем Джеку, тем больше у суда поводов сомневаться в его невиновности. Любовь слепа, но даже одурманенная ею Тедди не в силах закрыть глаза на копящиеся странности в деле ее очаровательного клиента. Напряжение нарастает с каждой минутой. Так кто же он, этот Джек Форрестер жертва необоснованных подозрений, или ловкий и хитрый убийца, пытающийся обвести всех вокруг пальца?...



Выпущено: США, Columbia Pictures Corporation, Delphi IV Productions
Продолжительность: чч:мм:сс
Перевод: Профессиональный многоголосый, профессиональный двухголосый, авторский одноголосый
Субтитры: Английские

Файл
Кодек: Н264
Качество: BDRip (AVC) (Blu-Ray Remux (1080p))
Видео: MPEG-4 AVC, 3000 Kбит/с, 1024x554, 23.976 кадр/с
Звук: Аудио #1: Audio Russian 2.0 / 48 kHz / 192 kbps - Профессиональный многоголосый - Первый канал (ОРТ)
Аудио #2: Digital Audio Russian 2.0 / 48 kHz / 192 kbps - Профессиональный двухголосый - НТВ+ (текст читают Наталья Казначеева и Александр Белый)
Аудио #3: Digital Audio Russian 2.0 / 48 kHz / 192 kbps - Авторский одноголосый - Андрей Гаврилов
Аудио #4: Audio 6.0 / 48 kHz / 448 kbps - Английский

Семпл
Общее
Уникальный идентификатор : 235934642601409397927168805581759518415 (0xB17F5BFBC4C97C12A3CC0E71031D16CF)
Полное имя : G:2Zazubrennoe.lezvie.1985.x264.BDRip.(AVC).ExKinoRay.mkv
Формат : Matroska
Версия формата : Version 2
Размер файла : 3,05 Гбайт
Продолжительность : 1 ч. 48 м.
Общий поток : 4022 Кбит/сек
Название фильма : Zazubrennoe.lezvie.1985.x264.BDRip.(AVC).ExKinoRay
Дата кодирования : UTC 2012-11-01 19:54:08
Программа кодирования : mkvmerge v4.0.0 ('The Stars were mine') сборка от Jun 6 2010 16:18:42
Библиотека кодирования : libebml v1.0.0 + libmatroska v1.0.0

Видео
Идентификатор : 1
Формат : AVC
Формат/Информация : Advanced Video Codec
Профиль формата : High@L4.1
Параметр CABAC формата : Да
Параметр ReFrames формата : 8 кадров
Идентификатор кодека : V_MPEG4/ISO/AVC
Продолжительность : 1 ч. 48 м.
Битрейт : 3000 Кбит/сек
Ширина : 1024 пикселя
Высота : 554 пикселя
Соотношение сторон : 16:9
Частота кадров : 23,976 кадра/сек
Цветовое пространство : YUV
Субдискретизация насыщенности : 4:2:0
Битовая глубина : 8 бит
Тип развёртки : Прогрессивная
Бит/(Пиксели*Кадры) : 0.221
Размер потока : 2,22 Гбайт (73%)
Заголовок : Rip by Enigma-Vladislav71
Библиотека кодирования : x264 core 92 r1510 33d382a
Настройки программы : cabac=1 / ref=8 / deblock=1:-2:-2 / analyse=0x3:0x133 / me=umh / subme=10 / psy=1 / psy_rd=1.00:0.00 / mixed_ref=1 / me_range=48 / chroma_me=1 / trellis=2 / 8x8dct=1 / cqm=0 / deadzone=21,11 / fast_pskip=0 / chroma_qp_offset=-2 / threads=3 / sliced_threads=0 / nr=0 / decimate=0 / interlaced=0 / constrained_intra=0 / bframes=8 / b_pyramid=2 / b_adapt=2 / b_bias=0 / direct=3 / wpredb=1 / wpredp=2 / keyint=240 / keyint_min=23 / scenecut=40 / intra_refresh=0 / rc=2pass / mbtree=0 / bitrate=3000 / ratetol=1.0 / qcomp=0.60 / qpmin=10 / qpmax=51 / qpstep=4 / cplxblur=20.0 / qblur=0.5 / ip_ratio=1.40 / pb_ratio=1.30 / aq=1:1.00
Язык : English
Default : Да
Forced : Нет

Аудио #1
Идентификатор : 2
Формат : AC-3
Формат/Информация : Audio Coding 3
Расширение режима : CM (complete main)
Идентификатор кодека : A_AC3
Продолжительность : 1 ч. 48 м.
Вид битрейта : Постоянный
Битрейт : 192 Кбит/сек
Каналы : 2 канала
Расположение каналов : Front: L R
Частота : 48,0 КГц
Битовая глубина : 16 бит
Метод сжатия : С потерями
Размер потока : 149 Мбайт (5%)
Заголовок : Профессиональный многоголосый - Первый канал (ОРТ)
Язык : Russian
Default : Да
Forced : Нет

Аудио #2
Идентификатор : 3
Формат : AC-3
Формат/Информация : Audio Coding 3
Расширение режима : CM (complete main)
Идентификатор кодека : A_AC3
Продолжительность : 1 ч. 48 м.
Вид битрейта : Постоянный
Битрейт : 192 Кбит/сек
Каналы : 2 канала
Расположение каналов : Front: L R
Частота : 48,0 КГц
Битовая глубина : 16 бит
Метод сжатия : С потерями
Размер потока : 149 Мбайт (5%)
Заголовок : Профессиональный двухголосый - НТВ+
Язык : Russian
Default : Нет
Forced : Нет

Аудио #3
Идентификатор : 4
Формат : AC-3
Формат/Информация : Audio Coding 3
Расширение режима : CM (complete main)
Идентификатор кодека : A_AC3
Продолжительность : 1 ч. 48 м.
Вид битрейта : Постоянный
Битрейт : 192 Кбит/сек
Каналы : 2 канала
Расположение каналов : Front: L R
Частота : 48,0 КГц
Битовая глубина : 16 бит
Метод сжатия : С потерями
Размер потока : 149 Мбайт (5%)
Заголовок : Андрей Гаврилов
Язык : Russian
Default : Нет
Forced : Нет

Аудио #4
Идентификатор : 5
Формат : AC-3
Формат/Информация : Audio Coding 3
Расширение режима : CM (complete main)
Идентификатор кодека : A_AC3
Продолжительность : 1 ч. 48 м.
Вид битрейта : Постоянный
Битрейт : 448 Кбит/сек
Каналы : 6 каналов
Расположение каналов : Front: L C R, Side: L R, LFE
Частота : 48,0 КГц
Битовая глубина : 16 бит
Метод сжатия : С потерями
Размер потока : 348 Мбайт (11%)
Заголовок : Английский
Язык : English
Default : Нет
Forced : Нет

Текст
Идентификатор : 6
Формат : UTF-8
Идентификатор кодека : S_TEXT/UTF8
Идентификатор кодека/Информация : UTF-8 Plain Text
Язык : English
Default : Да
Forced : Нет
Релиз от:

Авторы релиза:



Скачать Зазубренное.лезвие.Jagged.Edge.(Ричард.Маркуэнд).[1985.триллер.мелодрама.детектив.BDRip-AVC].[MVO]+[DVO]+[AVO]+[Sub].torrent без регистрации
Золото ЗОЛОТАЯ РАЗДАЧА! СКАЧАННОЕ НЕ ЗАСЧИТЫВАЕТСЯ! Золото
Дата: Зарегистрирован   [ Тип: внутренний ] Как тут cкачать?
MAGNET ссылка
MAGNET ссылка


Скачать .torrent

16 KB

Статус: проверено DHT
Скачан: торрент - 108 раз, раздача полностью - 3 раз
Размер: 3,05 GB
Оценка:  - (Голосов: 0)
Поблагодарили: 0
Поделиться ссылкой на эту раздачу с друзьями:
В контактеFacebookОдноклассникиTwitterLivejournalМой МирLiveinternet
 

 
Показать сообщения:    


Вы не можете начинать темы
Вы не можете отвечать на сообщения
Вы не можете редактировать свои сообщения
Вы не можете удалять свои сообщения
Вы не можете голосовать в опросах
Вы не можете прикреплять файлы к сообщениям
Вы можете скачивать файлы