Loading...
Error

Скачать Это развод! / Настоящий лунный свет / Serious Moonlight (Шерил Хайнс) [2009, комедия, мелодрама, криминал, BDRip-AVC] [MVO]+[Sub] торрент без регистрации

 
Статистика раздачи
Размер:  2,16 GB   |    Скачан:  113 раз
Сидов:  1  [  0 KB/s  ]  
 
Автор Сообщение

Marsianka

[] 

Информация о фильме
Название: Это развод! (Настоящий лунный свет)
Оригинальное название: Serious Moonlight
Год выхода: 2009
Жанр: комедия, мелодрама, криминал
Режиссер: Шерил Хайнс
В ролях: Мег Райан, Тимоти Хаттон, Кристен Белл, Джастин Лонг, Энди Острой, Натан Дин, Кимберли Петерсон, Дерек Картер, Билл Паркс

О фильме: Узнав, что муж полюбил другую и улетает в Париж, Луиза решила его не отпускать связав мужа скотчем. Попытки вспомнить всё хорошее, что было в их совместной жизни, не увенчались успехом. Стараясь выбраться из заключения, неверный супруг привлёк внимание газонокосильщика. Вот только изменник грабителю не товарищ. Вскоре Луиза с мужем и его любовницей окажутся в заложниках у целой банды



Выпущено: США, All For A Films, Night and Day Pictures
Продолжительность: 01:24:02
Перевод: Профессиональный многоголосый
Субтитры: Английские
Дата релиза: 02.11.2012

Файл
Кодек: Н264
Качество: BDRip (AVC) (BDRemux (1080p))
Видео: MPEG-4 AVC, 2849 Kбит/с, 1024x576, 23.976 кадр/с
Звук: Русский (AC3, 6 ch, 384 Кбит/с), английский (AC3, 6 ch, 448 Кбит/с)

Семпл
Общее
Уникальный идентификатор : 181379436911677871507442663930121319305 (0x887468ACA664F0A18E1774C0182E7389)
Полное имя : G:1Jeto.razvod.2009.x264.BDRip.(AVC).ExKinoRay.mkv
Формат : Matroska
Версия формата : Version 2
Размер файла : 2,16 Гбайт
Продолжительность : 1 ч. 24 м.
Общий поток : 3681 Кбит/сек
Название фильма : Jeto.razvod.2009.x264.BDRip.(AVC).ExKinoRay
Дата кодирования : UTC 2012-11-02 15:45:37
Программа кодирования : mkvmerge v4.0.0 ('The Stars were mine') сборка от Jun 6 2010 16:18:42
Библиотека кодирования : libebml v1.0.0 + libmatroska v1.0.0

Видео
Идентификатор : 1
Формат : AVC
Формат/Информация : Advanced Video Codec
Профиль формата : High@L4.1
Параметр CABAC формата : Да
Параметр ReFrames формата : 8 кадров
Идентификатор кодека : V_MPEG4/ISO/AVC
Продолжительность : 1 ч. 24 м.
Битрейт : 2849 Кбит/сек
Ширина : 1024 пикселя
Высота : 576 пикселей
Соотношение сторон : 16:9
Частота кадров : 23,976 кадра/сек
Цветовое пространство : YUV
Субдискретизация насыщенности : 4:2:0
Битовая глубина : 8 бит
Тип развёртки : Прогрессивная
Бит/(Пиксели*Кадры) : 0.201
Размер потока : 1,63 Гбайт (75%)
Заголовок : Rip by Enigma-Vladislav71
Библиотека кодирования : x264 core 116 r2074 2641b9e
Настройки программы : cabac=1 / ref=8 / deblock=1:-2:-2 / analyse=0x3:0x133 / me=umh / subme=11 / psy=1 / psy_rd=1.00:0.00 / mixed_ref=1 / me_range=48 / chroma_me=1 / trellis=2 / 8x8dct=1 / cqm=0 / deadzone=21,11 / fast_pskip=0 / chroma_qp_offset=-2 / threads=3 / sliced_threads=0 / nr=0 / decimate=0 / interlaced=0 / bluray_compat=0 / constrained_intra=0 / bframes=8 / b_pyramid=2 / b_adapt=2 / b_bias=0 / direct=3 / weightb=1 / open_gop=0 / weightp=2 / keyint=240 / keyint_min=23 / scenecut=40 / intra_refresh=0 / rc=2pass / mbtree=0 / bitrate=2849 / ratetol=1.0 / qcomp=0.60 / qpmin=10 / qpmax=51 / qpstep=4 / cplxblur=20.0 / qblur=0.5 / ip_ratio=1.40 / pb_ratio=1.30 / aq=2:1.00
Язык : English
Default : Нет
Forced : Нет

Аудио #1
Идентификатор : 2
Формат : AC-3
Формат/Информация : Audio Coding 3
Расширение режима : CM (complete main)
Идентификатор кодека : A_AC3
Продолжительность : 1 ч. 24 м.
Вид битрейта : Постоянный
Битрейт : 384 Кбит/сек
Каналы : 6 каналов
Расположение каналов : Front: L C R, Side: L R, LFE
Частота : 48,0 КГц
Битовая глубина : 16 бит
Метод сжатия : С потерями
Размер потока : 231 Мбайт (10%)
Язык : Russian
Default : Да
Forced : Нет

Аудио #2
Идентификатор : 3
Формат : AC-3
Формат/Информация : Audio Coding 3
Расширение режима : CM (complete main)
Идентификатор кодека : A_AC3
Продолжительность : 1 ч. 24 м.
Вид битрейта : Постоянный
Битрейт : 448 Кбит/сек
Каналы : 6 каналов
Расположение каналов : Front: L C R, Side: L R, LFE
Частота : 48,0 КГц
Битовая глубина : 16 бит
Метод сжатия : С потерями
Размер потока : 269 Мбайт (12%)
Язык : English
Default : Нет
Forced : Нет

Текст
Идентификатор : 4
Формат : UTF-8
Идентификатор кодека : S_TEXT/UTF8
Идентификатор кодека/Информация : UTF-8 Plain Text
Язык : English
Default : Да
Forced : Нет

Меню
00:00:00.000 : en:Chapter 01
00:08:46.359 : en:Chapter 02
00:12:51.354 : en:Chapter 03
00:26:32.925 : en:Chapter 04
00:37:20.071 : en:Chapter 05
00:43:09.921 : en:Chapter 06
00:49:40.936 : en:Chapter 07
00:57:33.158 : en:Chapter 08
01:03:47.449 : en:Chapter 09
01:15:01.163 : en:Chapter 10
01:18:04.096 : en:Chapter 11
01:20:31.035 : en:Chapter 12
Релиз от:

Авторы релиза:



Скачать Это.развод!.Настоящий.лунный.свет.Serious.Moonlight.(Шерил.Хайнс).[2009.комедия.мелодрама.криминал.BDRip-AVC].[MVO]+[Sub].torrent без регистрации
Золото ЗОЛОТАЯ РАЗДАЧА! СКАЧАННОЕ НЕ ЗАСЧИТЫВАЕТСЯ! Золото
Дата: Зарегистрирован   [ Тип: внутренний ] Как тут cкачать?
MAGNET ссылка
MAGNET ссылка


Скачать .torrent

11 KB

Статус: проверено DHT
Скачан: торрент - 113 раз, раздача полностью - 69 раз
Размер: 2,16 GB
Оценка:  - (Голосов: 0)
Поблагодарили: 1
Поделиться ссылкой на эту раздачу с друзьями:
В контактеFacebookОдноклассникиTwitterLivejournalМой МирLiveinternet
 

 
Показать сообщения:    


Вы не можете начинать темы
Вы не можете отвечать на сообщения
Вы не можете редактировать свои сообщения
Вы не можете удалять свои сообщения
Вы не можете голосовать в опросах
Вы не можете прикреплять файлы к сообщениям
Вы можете скачивать файлы