Loading...
Error

Скачать Левиафан / Leviathan (Джордж Пан Косматос) [1989 г., Фантастика, мистика, ужасы, HDTVRip] [MVO] + [AVO] торрент без регистрации

 
Статистика раздачи
Размер:  2,19 GB   |    Скачан:  116 раз
Сидов:  1  [  0 KB/s  ]  
 
Автор Сообщение

leon030982

[] 

Левиафан / Leviathan


Год выпуска: 1989
Страна: США, MGM / Gordon / De Laurentiis
Жанр: Фантастика, мистика, ужасы
Продолжительность: 01:37:56
Перевод: Профессиональный (многоголосый, закадровый)
Русские субтитры: нет

Режиссер: Джордж Пан Косматос / George Pan Cosmatos

В ролях: Питер Уэллер, Аманда Пэйс, Ричард Кренна, Мег Фостер, Дэниэл Стерн, Лайза Айлбахер, Эрни Хадсон

Описание: Во время вахтенных работ по добыче руды на 5-и километровой глубине в Атлантике один из техников находит затонувшее русское судно. Вскоре выясняется, что на судне велись секретные эксперименты. В сейфе, принесенном из корабля на подводную базу шахтеров, находятся записи о таинственной болезни, поразившей весь экипаж корабля. Вскоре один из шахтеров умирает и мутирует в жуткое чудовище, которое начитает уничтожать все живое на своем пути...

IMDB
Качество: HDTVRip(Исх. HDTV 720)
Формат: AVI
Видео кодек: XviD
Аудио кодек: AC3
Видео: 720x400 (1.80:1), 23.976 fps, XviD build 50 ~2028 kbps avg, 0.29 bit/pixel
Audio #1: 48 kHz, AC3 Dolby Digital, 3/2 (L,C,R,l,r) + LFE ch, ~384 kbps Многоголоска
Audio #2: 48 kHz, AC3 Dolby Digital, 2/0 (L,R) ch, ~384 kbps Андрей Гаврилов
Audio #3: 48 kHz, AC3 Dolby Digital, 2/0 (L,R) ch, ~384 kbps Английский
Субтитры: английские - отдельно
General
Complete name : J:\Leviathan.HDTv.chopper887.avi
Format : AVI
Format/Info : Audio Video Interleave
File size : 2.19 GiB
Duration : 1h 37mn
Overall bit rate : 3 201 Kbps
Writing application : VirtualDubMod 1.5.10.2 (build 2540/release)
Writing library : VirtualDubMod build 2540/release
Video
ID : 0
Format : MPEG-4 Visual
Format profile : Advanced Simple@L5
Format settings, BVOP : Yes
Format settings, QPel : No
Format settings, GMC : No warppoints
Format settings, Matrix : Default (H.263)
Codec ID : XVID
Codec ID/Hint : XviD
Duration : 1h 37mn
Bit rate : 2 031 Kbps
Width : 720 pixels
Height : 400 pixels
Display aspect ratio : 16:9
Frame rate : 23.976 fps
Resolution : 8 bits
Colorimetry : 4:2:0
Scan type : Progressive
Bits/(Pixel*Frame) : 0.294
Stream size : 1.39 GiB (63%)
Writing library : XviD 1.2.1 (UTC 2008-12-04)
Audio #1
ID : 1
Format : AC-3
Format/Info : Audio Coding 3
Codec ID : 2000
Duration : 1h 37mn
Bit rate mode : Constant
Bit rate : 384 Kbps
Channel(s) : 6 channels
Channel positions : Front: L C R, Surround: L R, LFE
Sampling rate : 48.0 KHz
Stream size : 269 MiB (12%)
Alignment : Split accross interleaves
Interleave, duration : 42 ms (1.00 video frame)
Interleave, preload duration : 500 ms
Audio #2
ID : 2
Format : AC-3
Format/Info : Audio Coding 3
Codec ID : 2000
Duration : 1h 37mn
Bit rate mode : Constant
Bit rate : 384 Kbps
Channel(s) : 2 channels
Channel positions : L R
Sampling rate : 48.0 KHz
Stream size : 269 MiB (12%)
Alignment : Split accross interleaves
Interleave, duration : 42 ms (1.00 video frame)
Interleave, preload duration : 500 ms
Audio #3
ID : 3
Format : AC-3
Format/Info : Audio Coding 3
Codec ID : 2000
Duration : 1h 37mn
Bit rate mode : Constant
Bit rate : 384 Kbps
Channel(s) : 2 channels
Channel positions : L R
Sampling rate : 48.0 KHz
Stream size : 269 MiB (12%)
Alignment : Split accross interleaves
Interleave, duration : 42 ms (1.00 video frame)
Interleave, preload duration : 500 ms
File: Leviathan.HDTv.chopper887.avi
Filesize: 2242.53 Mb ( 2 351 460 352 bytes )
Play length: 01:37:56.755 (140901 frames)
Subtitles: Not Present
Video: 720x400 (1.80:1), 23.976 fps, XviD build 50 ~2028 kbps avg, 0.29 bit/pixel
Audio #1: 48 kHz, AC3 Dolby Digital, 3/2 (L,C,R,l,r) + LFE ch, ~384 kbps
Audio #2: 48 kHz, AC3 Dolby Digital, 2/0 (L,R) ch, ~384 kbps
Audio #3: 48 kHz, AC3 Dolby Digital, 2/0 (L,R) ch, ~384 kbps



Скачать Левиафан.Leviathan.(Джордж.Пан.Косматос).[1989.г.Фантастика.мистика.ужасы.HDTVRip].[MVO].+.[AVO].torrent без регистрации
Золото ЗОЛОТАЯ РАЗДАЧА! СКАЧАННОЕ НЕ ЗАСЧИТЫВАЕТСЯ! Золото
Дата: Зарегистрирован   [ Тип: внутренний ] Как тут cкачать?
MAGNET ссылка
MAGNET ссылка


Скачать .torrent

12 KB

Статус: проверено DHT
Скачан: торрент - 116 раз, раздача полностью - 10 раз
Размер: 2,19 GB
Оценка:  5 (Голосов: 2)
Поблагодарили: 2
Поделиться ссылкой на эту раздачу с друзьями:
В контактеFacebookОдноклассникиTwitterLivejournalМой МирLiveinternet
 

 
Показать сообщения:    


Вы не можете начинать темы
Вы не можете отвечать на сообщения
Вы не можете редактировать свои сообщения
Вы не можете удалять свои сообщения
Вы не можете голосовать в опросах
Вы не можете прикреплять файлы к сообщениям
Вы можете скачивать файлы