Loading...
Error

Скачать Шоу Трумана / The Truman Show (Питер Уир) [1998, фантастика, драма, комедия, BDRip] [AVO] [Живов] + [AVO] [Визгунов] торрент без регистрации

 
Статистика раздачи
Размер:  1,46 GB   |    Скачан:  173 раза
Сидов:  1  [  0 KB/s  ]  
 
Автор Сообщение

leon030982

[] 

Шоу Трумана / The Truman Show

Страна: США
Жанр: фантастика, драма, комедия
Год выпуска: 1998
Продолжительность: 01:42:56
Перевод:
1. Авторский (одноголосый закадровый) - Юрий Живов // спасибо isbs //
2. Авторский (одноголосый закадровый) - Сергей Визгунов
Cубтитры: нет
Режиссер: Питер Уир / Peter Weir
В ролях:
*Джим Керри — Труман Бёрбанк
*Лора Линни — Мэрил Бёрбанк/Ханна Джилл
*Эд Харрис — Кристоф
*Наташа МакЭлхон — Лорен/Сильвия
*Ноа Эммерих — Марлон/Луи Колтрейн
*Пол Джиаматти — Симеон, оператор «Шоу Трумана»
*Холланд Тейлор — Анжела Бёрбанк/Аланис Монтклейр
*Брайен Делейт — Кирк Бёрбанк/Уолтер Мур
*Питер Краузе — шеф Трумена
Описание: Труман Бербанк с самого рождения живет внутри телешоу. Все окружающие его люди - актеры. Весь мир острова, где он живет, создан искусственно. Но Труман не знает, что является телезвездой. Пока не начинает подозревать, что что-то не так.
Рейтинг:
imdb.com - 8.0/10 (304,468)
kinopoisk.ru - 8.481 (101 960)
MPAA PG - Рекомендуется присутствие родителей
Релиз от группы:
Качество видео: // спасибо Saint_KAMBALA //
Формат видео: AVI // Sample //
Видео: 704x400 (1.76:1), 23.976 fps, XviD build 65 ~1440 kbps avg, 0.213 bit/pixel
Аудио: #1 48 kHz, AC3 Dolby Digital, 3/2 (L,C,R,l,r) + LFE ch, ~384 kbps - Живов
Аудио: #2 48 kHz, AC3 Dolby Digital, 2/0 (L,R) ch, ~192 kbps - Визгунов
Общее
Полное имя : G:\Shou.Trumana.1998.BDRip.[All.Films].avi
Формат : AVI
Формат/Информация : Audio Video Interleave
Размер файла : 1,46 Гбайт
Продолжительность : 1 ч. 42 м.
Общий поток : 2030 Кбит/сек
Название фильма : Shou.Trumana.1998.BDRip.[All.Films]
Режиссёр : VremeniNet
Программа кодирования : VirtualDubModRus 1.5.10.2 (build 2542/release)
Правообладатель : [rutracker.org]
Видео
Идентификатор : 0
Формат : MPEG-4 Visual
Профиль формата : Advanced Simple@L5
Параметр BVOP формата : 1
Параметр QPel формата : Нет
Параметр GMC формата : Без точки перехода
Параметр матрицы формата : Выборочная
Идентификатор кодека : XVID
Идентификатор кодека/Подсказка : XviD
Продолжительность : 1 ч. 42 м.
Битрейт : 1440 Кбит/сек
Ширина : 704 пикселя
Высота : 400 пикселей
Соотношение сторон : 16:9
Частота кадров : 23,976 кадра/сек
Цветовое пространство : YUV
Субдискретизация насыщенности : 4:2:0
Битовая глубина : 8 бит
Тип развёртки : Прогрессивная
Метод сжатия : С потерями
Бит/(Пиксели*Кадры) : 0.213
Размер потока : 1,04 Гбайт (71%)
Библиотека кодирования : XviD 65
Аудио #1
Идентификатор : 1
Формат : AC-3
Формат/Информация : Audio Coding 3
Расширение режима : CM (complete main)
Параметр Endianness формата : Big
Идентификатор кодека : 2000
Продолжительность : 1 ч. 42 м.
Вид битрейта : Постоянный
Битрейт : 384 Кбит/сек
Каналы : 6 каналов
Расположение каналов : Front: L C R, Side: L R, LFE
Частота : 48,0 КГц
Битовая глубина : 16 бит
Метод сжатия : С потерями
Размер потока : 283 Мбайт (19%)
Выравнивание : Разделение по промежуткам
Продолжительность промежутка : 42 мс. (1,00 видеокадр)
Время предзагрузки промежутка : 500 мс.
Заголовок : AVO — «Живов»
Аудио #2
Идентификатор : 2
Формат : AC-3
Формат/Информация : Audio Coding 3
Расширение режима : CM (complete main)
Параметр Endianness формата : Big
Идентификатор кодека : 2000
Продолжительность : 1 ч. 42 м.
Вид битрейта : Постоянный
Битрейт : 192 Кбит/сек
Каналы : 2 канала
Расположение каналов : Front: L R
Частота : 48,0 КГц
Битовая глубина : 16 бит
Метод сжатия : С потерями
Размер потока : 141 Мбайт (9%)
Выравнивание : Разделение по промежуткам
Продолжительность промежутка : 42 мс. (1,00 видеокадр)
Время предзагрузки промежутка : 500 мс.
Заголовок : AVO — «Визгунов»



Скачать Шоу.Трумана.The.Truman.Show.(Питер.Уир).[1998.фантастика.драма.комедия.BDRip].[AVO].[Живов].+.[AVO].[Визгунов].torrent без регистрации
Золото ЗОЛОТАЯ РАЗДАЧА! СКАЧАННОЕ НЕ ЗАСЧИТЫВАЕТСЯ! Золото
Дата: Зарегистрирован   [ Тип: внутренний ] Как тут cкачать?
MAGNET ссылка
MAGNET ссылка


Скачать .torrent

15 KB

Статус: проверено DHT
Скачан: торрент - 173 раз, раздача полностью - 235 раз
Размер: 1,46 GB
Оценка:  - (Голосов: 0)
Поблагодарили: 4
Поделиться ссылкой на эту раздачу с друзьями:
В контактеFacebookОдноклассникиTwitterLivejournalМой МирLiveinternet
 

 
Показать сообщения:    


Вы не можете начинать темы
Вы не можете отвечать на сообщения
Вы не можете редактировать свои сообщения
Вы не можете удалять свои сообщения
Вы не можете голосовать в опросах
Вы не можете прикреплять файлы к сообщениям
Вы можете скачивать файлы