Loading...
Error

Скачать Пять патронных гильз / F¬nf Patronenh¬lsen (Иван Горобец) [1960, военный, DVDRip] [Dub] торрент без регистрации

Статистика раздачи
Размер:  1,45 GB   |    Скачан:  137 раз
Сидов:  1  [  0 KB/s  ]  
 
 
 
Автор Сообщение

Marsianka

[] 

Год выпуска: 1960
Страна: ГДР
Студия: Киностудия Дефа

Перевод: Профессиональный (дублированный)
Жанр: военный
Продолжительность: 01:21:31

Режиссер: Иван Горобец

В ролях: Эрнст Буш, Эрвин Гешоннек, Манфред Круг, Эдвин Мариан, Армин Мюллер-Шталь, Ульрих Тайн, Эрнст-Георг Швилль, Гюнтер Науманн, Фриц Диц, Йоханнес Маус...

Роли дублировали: Алексей Консовский, Вячеслав Тихонов, Владимир Прохоров, Виктор Авдюшко, Анатолий Кузнецов...

Описание: Действие картины происходит во время Гражданской войны в Испании. В горах Сьерры интернациональная бригада комиссара Виттинга, ведя непрекращающиеся бои с противником, вынужденно отступает. Его бойцы остаются практически без воды, пищи и боеприпасов.
Тяжело раненый комиссар перед смертью дает задание пяти добровольцам доставить важное донесение в штаб, для чего делит его на 5 отрывков и помещает их в отдельные патронные гильзы. Каждый получает по одной гильзе, четверым бойцам, путем неимоверных испытаний, удается добраться до своих и узнать тайну донесения.

Исходник: DVD5 R5
Качество: DVDRip
Формат: AVI

Видео: 704x528 (4:3), 25.000 fps, XviD MPEG-4 ~2283 kbps avg, 0.246 bit/pixel
Аудио: 48 kHz, Dolby AC3, 2 ch, 256.00 kbps Constant
Раздача от:

Общее
Полное имя : Pyat.patronnyx.gilz.1960.D.DVDRip_[Youtracker]_by_avproh.avi
Формат : AVI
Формат/Информация : Audio Video Interleave
Размер файла : 1,45 Гбайт
Продолжительность : 1 ч. 21 м.
Общий поток : 2549 Кбит/сек
Программа кодирования : VirtualDubMod 1.5.10.3 | www.virtualdub-fr.org || (build 2550/release)
Библиотека кодирования : VirtualDubMod build 2550/release

Видео
Идентификатор : 0
Формат : MPEG-4 Visual
Профиль формата : Advanced Simple@L5
Параметр BVOP формата : 1
Параметр QPel формата : Нет
Параметр GMC формата : Без точки перехода
Параметр матрицы формата : Выборочная
Идентификатор кодека : XVID
Идентификатор кодека/Подсказка : XviD
Продолжительность : 1 ч. 21 м.
Битрейт : 2283 Кбит/сек
Ширина : 704 пикселя
Высота : 528 пикселей
Соотношение сторон : 4:3
Частота кадров : 25,000 кадров/сек
Цветовое пространство : YUV
Субдискретизация насыщенности : 4:2:0
Битовая глубина : 8 бит
Тип развёртки : Прогрессивная
Метод сжатия : С потерями
Бит/(Пиксели*Кадры) : 0.246
Размер потока : 1,30 Гбайт (90%)
Библиотека кодирования : XviD 65

Аудио
Идентификатор : 1
Формат : AC-3
Формат/Информация : Audio Coding 3
Расширение режима : CM (complete main)
Параметр Endianness формата : Big
Идентификатор кодека : 2000
Продолжительность : 1 ч. 21 м.
Вид битрейта : Постоянный
Битрейт : 256 Кбит/сек
Каналы : 2 канала
Расположение каналов : Front: L R
Частота : 48,0 КГц
Битовая глубина : 16 бит
Метод сжатия : С потерями
Размер потока : 149 Мбайт (10%)
Выравнивание : Разделение по промежуткам
Продолжительность промежутка : 40 мс. (1,00 видеокадр)
Время предзагрузки промежутка : 500 мс.



Скачать Пять.патронных.гильз.F¬nf.Patronenh¬lsen.(Иван.Горобец).[1960.военный.DVDRip].[Dub].torrent без регистрации
Золото ЗОЛОТАЯ РАЗДАЧА! СКАЧАННОЕ НЕ ЗАСЧИТЫВАЕТСЯ! Золото
Дата: Зарегистрирован   [ Тип: внутренний ] Как тут cкачать?
MAGNET ссылка
MAGNET ссылка


Скачать .torrent

15 KB

Статус: проверено DHT
Скачан: торрент - 137 раз, раздача полностью - 6 раз
Размер: 1,45 GB
Оценка:  - (Голосов: 0)
Поблагодарили: 1
Поделиться ссылкой на эту раздачу с друзьями:
В контактеFacebookОдноклассникиTwitterLivejournalМой МирLiveinternet
 

 
Показать сообщения:    


Вы не можете начинать темы
Вы не можете отвечать на сообщения
Вы не можете редактировать свои сообщения
Вы не можете удалять свои сообщения
Вы не можете голосовать в опросах
Вы не можете прикреплять файлы к сообщениям
Вы можете скачивать файлы