Loading...
Error

Скачать Месть / Revenge (Полный 2-ой сезон) (Мэтт Эрл Бисли, Филлип Нойс) [2012-2013 г., драма, WEB-DL][1080p] [DVO] (NewStudio) торрент без регистрации

 
Статистика раздачи
Размер:  38,37 GB   |    Скачан:  4565 раз
Сидов:  1  [  0 KB/s  ]  
 
Автор Сообщение

leon030982

[] 

Возмездие / Revenge
Год выпуска: 2012-2013
Страна: США
Жанр: криминал, драма, детектив
Продолжительность: ~00:45:00
Перевод: Профессиональный (двухголосный закадровый)
Cубтитры: русские(Forced)

Режиссёр: Мэтт Эрл Бисли, Филлип Нойс

В ролях: Эмили ВанКэмп (Эмили Торн), Робби Амелл (Adam), Макс Мартини (Frank Stevens), Стефен Эллиотт (The Body), Криста Б. Аллен (Charlotte Grayson), Mike Allison (Party Guest), Ric Bagoly (Yacht Partygoer), Джошуа Боуман (Daniel Grayson), Кристина Чанг (Karrie Thurgood), Генри Черни (Conrad Grayson), Ashley Driver (Tiffany), Кейт Харрис (Doug Reid), Эмили Элин Линд
(Abigail)

Описание: Эмили Торн, молодая и красивая женщина которая ранее была известна под именем Аманда Кларк, приезжает в Хамптонс чтобы отомстить тем людям, которые разрушили ее семью.


Сэмпл
Качество: WEB-DL 1080p
Формат: MKV
Видео кодек: H.264
Аудио кодек: AC3
Видео: AVC, 1920x1080, 23.976 fps, ~4 947 Kbps avg, 0.099 bit/pixel
Аудио Rus: AC3, 48.0 KHz, 6 ch, ~384 Kbps (New Studio)
Аудио Eng: AC3, 48.0 KHz, 6 ch, ~384 Kbps
General
Unique ID : 190207035902311302123023216143329525335 (0x8F188AE85741970498893FF86D01FE57)
Complete name : E:\video\serials\Revenge.s02.1080p.WEB-DL.Rus.Eng.NewStudio\Revenge.s02e01.1080p.WEB-DL.Rus.Eng.NewStudio.mkv
Format : Matroska
Format version : Version 2
File size : 1.76 GiB
Duration : 43mn 17s
Overall bit rate : 5 831 Kbps
Movie name : Revenge.S02E01.1080p.WEB.DL.DD5.1.H.264.KiNGS.mkv 18816
Encoded date : UTC 2012-10-09 12:09:02
Writing application : mkvmerge v5.8.0 ('No Sleep / Pillow') built on Sep 2 2012 15:37:04
Writing library : libebml v1.2.3 + libmatroska v1.3.0
Video
ID : 1
Format : AVC
Format/Info : Advanced Video Codec
Format profile : High@L4.0
Format settings, CABAC : Yes
Format settings, ReFrames : 4 frames
Codec ID : V_MPEG4/ISO/AVC
Duration : 43mn 17s
Bit rate : 4 947 Kbps
Width : 1 920 pixels
Height : 1 080 pixels
Display aspect ratio : 16:9
Frame rate mode : Constant
Frame rate : 23.976 fps
Color space : YUV
Chroma subsampling : 4:2:0
Bit depth : 8 bits
Scan type : Progressive
Bits/(Pixel*Frame) : 0.099
Stream size : 1.50 GiB (85%)
Language : English
Default : Yes
Forced : No
Color primaries : BT.709
Transfer characteristics : BT.709
Matrix coefficients : BT.709
Audio #1
ID : 2
Format : AC-3
Format/Info : Audio Coding 3
Mode extension : CM (complete main)
Format settings, Endianness : Big
Codec ID : A_AC3
Duration : 43mn 17s
Bit rate mode : Constant
Bit rate : 384 Kbps
Channel(s) : 6 channels
Channel positions : Front: L C R, Side: L R, LFE
Sampling rate : 48.0 KHz
Bit depth : 16 bits
Compression mode : Lossy
Stream size : 119 MiB (7%)
Title : NewStuio
Language : Russian
Default : Yes
Forced : No
Audio #2
ID : 3
Format : AC-3
Format/Info : Audio Coding 3
Mode extension : CM (complete main)
Format settings, Endianness : Big
Codec ID : A_AC3
Duration : 43mn 17s
Bit rate mode : Constant
Bit rate : 384 Kbps
Channel(s) : 6 channels
Channel positions : Front: L C R, Side: L R, LFE
Sampling rate : 48.0 KHz
Bit depth : 16 bits
Compression mode : Lossy
Stream size : 119 MiB (7%)
Language : English
Default : No
Forced : No
Text
ID : 4
Format : UTF-8
Codec ID : S_TEXT/UTF8
Codec ID/Info : UTF-8 Plain Text
Title : Forced
Language : Russian
Default : Yes
Forced : No
S2, Ep1
Destiny
S2, Ep2
Resurrection
S2, Ep3
Confidence
S2, Ep4
Intuition
S2, Ep5
Forgiveness
S2, Ep6
Illusion
S2, Ep7
Exposure
S2, Ep8
Lineage
Внимание! Раздача ведётся путём добавления новых серий; при каждом добавлении создётся новый торрент. Чтобы начать докачку новой серии, пользователям необходимо сделать следующее:
(1) остановить скачивание,
(2) удалить старый торрент у себя из клиента (старые серии удалять не надо),
(3) скачать новый торрент и запустить его у себя в клиенте вместо старого, при этом указать клиенту путь в старую папку куда и должно происходить скачивание новых серий.
Ваш клиент при этом должен произвести хеширование (проверку) старой папки (если не производит сам - помогите ему сделать это), и будет докачивать только те серии которых у вас ещё нет. Старые серии при этом не удаляются, а продолжают раздаваться!
Eсли вы уже удалили старые серии, то предотвратить повторную закачку старых серий можно, отжав галочку в соответсвующих местах при запуске нового торрента. По возможности, желательно не удалять старые серии как можно дольше чтобы релизёр не столько продолжал раздавать старые серии, а смог сконцентрироваться на новых.



Скачать Месть.Revenge.(Полный.2-ой.сезон).(Мэтт.Эрл.Бисли.Филлип.Нойс).[2012-2013.г.драма.WEB-DL][1080p].[DVO].(NewStudio).torrent без регистрации
Золото ЗОЛОТАЯ РАЗДАЧА! СКАЧАННОЕ НЕ ЗАСЧИТЫВАЕТСЯ! Золото
Дата: Зарегистрирован   [ Тип: внутренний ] Как тут cкачать?
MAGNET ссылка
MAGNET ссылка


Скачать .torrent

99 KB

Статус: проверено DHT
Скачан: торрент - 4565 раз, раздача полностью - 4 раз
Размер: 38,37 GB
Оценка:  5 (Голосов: 2)
Поблагодарили: 3
Поделиться ссылкой на эту раздачу с друзьями:
В контактеFacebookОдноклассникиTwitterLivejournalМой МирLiveinternet
 

 

leon030982

[] 

15-я серия az az
 

leon030982

[] 

16-я серия az
 

leon030982

[] 

17-я серия ab
 

leon030982

[] 

18-я серия az
 

leon030982

[] 

19-я серия az ay
 

leon030982

[] 

20-я серия ay
 

leon030982

[] 

добавлены финальные серии az
 
Показать сообщения:    


Вы не можете начинать темы
Вы не можете отвечать на сообщения
Вы не можете редактировать свои сообщения
Вы не можете удалять свои сообщения
Вы не можете голосовать в опросах
Вы не можете прикреплять файлы к сообщениям
Вы можете скачивать файлы