Loading...
Error

Скачать Скорость падения / Terminal Velocity (Деран Сарафян) [1994, боевик, триллер, детектив, BDRip-AVC] [MVO]+ [DVO]+[AVO]+[Sub] торрент без регистрации

 
Статистика раздачи
Размер:  3,15 GB   |    Скачан:  129 раз
Сидов:  1  [  0 KB/s  ]  
 
Автор Сообщение

Marsianka

[] 

Информация о фильме
Название: Скорость падения
Оригинальное название: Terminal Velocity
Год выхода: 1994
Жанр: боевик, триллер, детектив
Режиссер: Деран Сарафян
В ролях: Чарли Шин, Настасья Кински, Джеймс Гандольфини, Кристофер МакДональд, Гари Баллок, Ганс Хоус, Мелвин Ван Пиблз, Сули МакКалло, Катрин Де Прюм, Ричард Сарафьян мл.

О фильме:
Броди - бесстрашный инструктор по парашютному спорту. Его новая очаровательная ученица быстро постигает азы этой опасной науки. Но во время первого совместного прыжка она погибает. Однако Броди не узнает в погибшей свою подопечную... Пытаясь найти разгадку, он оказывается в эпицентре дерзкого преступления: русские террористы, бывшие агенты КГБ, похищают самолет с золотом. И тогда судьба снова сводит его с бывшей ученицей...



Страна: США, Канада, Hollywood Pictures, Interscope Communications, PolyGram Filmed Entertainment
Продолжительность: 01:41:54
Перевод: Профессиональный многоголосый, профессиональный двухголосый, авторский одноголосый
Субтитры: Английские
Дата релиза: 04.11.2012

Файл
Кодек: H.264
Качество: BDRip (AVC) (Blu-Ray Remux (1080p))
Видео: MPEG-4 AVC, 2500 Кбит/с, 1024x428, 23.976 кадр/с
Звук:
1 Русский (АС3, 6 ch, 448 Кбит/с) Профессиональный многоголосый [Видеосервис]
2 Русский (АС3, 2 ch, 192 Кбит/с) Профессиональный многоголосый [Первый канал]
3 Русский (АС3, 6 ch, 384 Кбит/с) Профессиональный двухголосый [FDV]
4 Русский (АС3, 6 ch, 448 Кбит/с) Авторский одноголосый [Андрей Гаврилов]
5 Английский (АС3, 6 ch, 448 Кбит/с)
Общее
Уникальный идентификатор : 176126675168295723013912496158735476809 (0x8480C386825EFC1C8F42ABBEBD4A2849)
Полное имя : G:2Skorost.padenija.1994.x264.BDRip.(AVC).ExKinoRay.mkv
Формат : Matroska
Версия формата : Version 2
Размер файла : 3,15 Гбайт
Продолжительность : 1 ч. 41 м.
Общий поток : 4421 Кбит/сек
Дата кодирования : UTC 2012-11-04 09:03:18
Программа кодирования : mkvmerge v4.0.0 ('The Stars were mine') сборка от Jun 6 2010 16:18:42
Библиотека кодирования : libebml v1.0.0 + libmatroska v1.0.0

Видео
Идентификатор : 1
Формат : AVC
Формат/Информация : Advanced Video Codec
Профиль формата : High@L4.1
Параметр CABAC формата : Да
Параметр ReFrames формата : 8 кадров
Идентификатор кодека : V_MPEG4/ISO/AVC
Продолжительность : 1 ч. 41 м.
Битрейт : 2500 Кбит/сек
Ширина : 1024 пикселя
Высота : 428 пикселей
Соотношение сторон : 2,40:1
Частота кадров : 23,976 кадра/сек
Цветовое пространство : YUV
Субдискретизация насыщенности : 4:2:0
Битовая глубина : 8 бит
Тип развёртки : Прогрессивная
Бит/(Пиксели*Кадры) : 0.238
Размер потока : 1,72 Гбайт (55%)
Заголовок : Rip by Enigma-Vladislav71
Библиотека кодирования : x264 core 116 r2074 2641b9e
Настройки программы : cabac=1 / ref=8 / deblock=1:-2:-2 / analyse=0x3:0x133 / me=umh / subme=11 / psy=1 / psy_rd=1.00:0.00 / mixed_ref=1 / me_range=48 / chroma_me=1 / trellis=2 / 8x8dct=1 / cqm=0 / deadzone=21,11 / fast_pskip=0 / chroma_qp_offset=-2 / threads=3 / sliced_threads=0 / nr=0 / decimate=0 / interlaced=0 / bluray_compat=0 / constrained_intra=0 / bframes=8 / b_pyramid=2 / b_adapt=2 / b_bias=0 / direct=3 / weightb=1 / open_gop=0 / weightp=2 / keyint=240 / keyint_min=23 / scenecut=40 / intra_refresh=0 / rc=2pass / mbtree=0 / bitrate=2500 / ratetol=1.0 / qcomp=0.60 / qpmin=10 / qpmax=51 / qpstep=4 / cplxblur=20.0 / qblur=0.5 / ip_ratio=1.40 / pb_ratio=1.30 / aq=2:1.00
Язык : English
Default : Нет
Forced : Нет

Аудио #1
Идентификатор : 2
Формат : AC-3
Формат/Информация : Audio Coding 3
Расширение режима : CM (complete main)
Идентификатор кодека : A_AC3
Продолжительность : 1 ч. 41 м.
Вид битрейта : Постоянный
Битрейт : 448 Кбит/сек
Каналы : 6 каналов
Расположение каналов : Front: L C R, Side: L R, LFE
Частота : 48,0 КГц
Битовая глубина : 16 бит
Метод сжатия : С потерями
Размер потока : 327 Мбайт (10%)
Заголовок : ПМ (Видеосервис)
Язык : Russian
Default : Да
Forced : Нет

Аудио #2
Идентификатор : 3
Формат : AC-3
Формат/Информация : Audio Coding 3
Расширение режима : CM (complete main)
Идентификатор кодека : A_AC3
Продолжительность : 1 ч. 41 м.
Вид битрейта : Постоянный
Битрейт : 192 Кбит/сек
Каналы : 2 канала
Расположение каналов : Front: L R
Частота : 48,0 КГц
Битовая глубина : 16 бит
Метод сжатия : С потерями
Размер потока : 140 Мбайт (4%)
Заголовок : ПМ (Первый канал)
Язык : Russian
Default : Нет
Forced : Нет

Аудио #3
Идентификатор : 4
Формат : AC-3
Формат/Информация : Audio Coding 3
Расширение режима : CM (complete main)
Идентификатор кодека : A_AC3
Продолжительность : 1 ч. 41 м.
Вид битрейта : Постоянный
Битрейт : 384 Кбит/сек
Каналы : 6 каналов
Расположение каналов : Front: L C R, Side: L R, LFE
Частота : 48,0 КГц
Битовая глубина : 16 бит
Метод сжатия : С потерями
Размер потока : 280 Мбайт (9%)
Заголовок : ПД (FDV)
Язык : Russian
Default : Нет
Forced : Нет

Аудио #4
Идентификатор : 5
Формат : AC-3
Формат/Информация : Audio Coding 3
Расширение режима : CM (complete main)
Идентификатор кодека : A_AC3
Продолжительность : 1 ч. 41 м.
Вид битрейта : Постоянный
Битрейт : 448 Кбит/сек
Каналы : 6 каналов
Расположение каналов : Front: L C R, Side: L R, LFE
Частота : 48,0 КГц
Битовая глубина : 16 бит
Метод сжатия : С потерями
Размер потока : 327 Мбайт (10%)
Заголовок : Гаврилов
Язык : Russian
Default : Нет
Forced : Нет

Аудио #5
Идентификатор : 6
Формат : AC-3
Формат/Информация : Audio Coding 3
Расширение режима : CM (complete main)
Идентификатор кодека : A_AC3
Продолжительность : 1 ч. 41 м.
Вид битрейта : Постоянный
Битрейт : 448 Кбит/сек
Каналы : 6 каналов
Расположение каналов : Front: L C R, Side: L R, LFE
Частота : 48,0 КГц
Битовая глубина : 16 бит
Метод сжатия : С потерями
Размер потока : 327 Мбайт (10%)
Заголовок : английский
Язык : Russian
Default : Нет
Forced : Нет

Текст
Идентификатор : 7
Формат : UTF-8
Идентификатор кодека : S_TEXT/UTF8
Идентификатор кодека/Информация : UTF-8 Plain Text
Язык : English
Default : Да
Forced : Нет

Меню
00:00:00.000 : en:Chapter 01
00:06:14.832 : en:Chapter 02
00:15:36.143 : en:Chapter 03
00:26:39.097 : en:Chapter 04
00:37:43.928 : en:Chapter 05
00:48:29.531 : en:Chapter 06
01:01:08.956 : en:Chapter 07
01:09:41.218 : en:Chapter 08
01:18:51.518 : en:Chapter 09
01:24:23.308 : en:Chapter 10
01:30:18.579 : en:Chapter 11
01:37:42.773 : en:Chapter 12
Семпл Релиз от:

Авторы релиза:



Скачать Скорость.падения.Terminal.Velocity.(Деран.Сарафян).[1994.боевик.триллер.детектив.BDRip-AVC].[MVO]+.[DVO]+[AVO]+[Sub].torrent без регистрации
Золото ЗОЛОТАЯ РАЗДАЧА! СКАЧАННОЕ НЕ ЗАСЧИТЫВАЕТСЯ! Золото
Дата: Зарегистрирован   [ Тип: внутренний ] Как тут cкачать?
MAGNET ссылка
MAGNET ссылка


Скачать .torrent

16 KB

Статус: проверено DHT
Скачан: торрент - 129 раз, раздача полностью - 10 раз
Размер: 3,15 GB
Оценка:  - (Голосов: 0)
Поблагодарили: 2
Поделиться ссылкой на эту раздачу с друзьями:
В контактеFacebookОдноклассникиTwitterLivejournalМой МирLiveinternet
 

 
Показать сообщения:    


Вы не можете начинать темы
Вы не можете отвечать на сообщения
Вы не можете редактировать свои сообщения
Вы не можете удалять свои сообщения
Вы не можете голосовать в опросах
Вы не можете прикреплять файлы к сообщениям
Вы можете скачивать файлы